This file was generated by Ched 2.7.0.0.
#TITLE ""
#ARTIST ""
#DESIGNER ""
#DIFFICULTY 0
#PLAYLEVEL
#SONGID ""
#WAVE ""
#WAVEOFFSET 0
#JACKET ""
#REQUEST "ticks_per_beat 480"
#00002: 4
#BPM01: 145
#BPM02: 150
#00008: 01
#02408: 02
#TIL00: ""
#HISPEED 00
#MEASUREHS 00
#02512:0000000000001313
#02518:0013000000000000
#0251b:0000000000001313
#03012:0000000000130013
#03018:13000013
#0301b:0000001300000000
#03015:00130000
#03215:0000000000000013
#0321b:0013
#03318:0013000000000000
#03315:00130013
#0331b:0000000000000013
#03818:13000013
#03812:0000000000000013
#03815:0000130000130000
#0381b:0013
#00915:0000000000130000
#00918:0013
#01015:00130000
#01012:0013
#01018:0000001300000000
#01010:0041
#0111b:00000013
#01115:0000000000000013
#01118:13
#01215:00001313
#0121b:00000013
#0201b:00130013
#02012:0000000000000013
#02015:00130000
#0221b:0013001300000000
#02212:00130000
#02215:0000000023000023
#02218:00000000000000000000002300000000
#02315:0000000000000013
#0231b:13
#0231b:13
#02715:0013000000001300
#02712:0000000000130000
#02718:00130000
#0271b:0000001300000000
#02710:0000000000410000
#02612:00000013
#02618:0000330000130023
#0261f:0000000000000021
#02619:0033000000000000
#02615:00330000
#02614:0033000000000000
#03918:0000000000000013
#0401b:00130000000000000000000000000000
#02112:0013
#02112:0013
#0211f:11
#02118:2300002300000000
#02115:00000023000000000000000000000000
#00015:00000013000000000000000013000000
#0001b:0000000000130000
#00012:0013
#00018:23000000000013000000000000000013
#04215:0013
#04212:0000000000130000
#04318:13000013
#0431b:0013000000000000
#04312:0013
#04315:0000000000000013
#04415:0000001300000000
#04412:0000130000000023
#04418:0000001300001300
#0441b:00130000
#04410:0000000000000041
#0451b:0013001300000000
#04515:00131300
#04512:0000000000000013
#04518:00000013
#04618:0013001300001300
#04615:00130000
#04612:0000000000130013
#0471b:0013001300000000
#04715:0000130000000013
#04712:0013
#04718:0000000000130000
#04818:0013000000130000
#0481b:0013
#04815:00000013
#04812:00130000
#04918:2300001300000000
#04915:0013
#0491b:00000013
#04912:00130000
#0521b:13
#05215:0013000000001300
#05218:0000130000130000
#05212:0000001300000000
#05415:0023000000001313
#05418:00000000230000000000130000130000
#05412:0013
#0551b:13
#05512:13
#03115:0000000000000013
#0311b:0013
#05018:00000013
#05012:13
#00115:00001300000000000000001300000000
#00112:0000001300000000
#0011b:00130000
#00118:0000000013000013
#0021b:0013000000000000
#00212:13
#00215:00000000130000000000130000130000
#00218:00000000000000130000000013001300
#00412:00130000
#0031b:0013
#00310:41
#00518:13
#00515:00000013
#0061b:0013
#00614:00000033000000000000000000000000
#00619:00000000000000000000000000000033
#00712:00130000
#00713:00000000000000000000003300000000
#00818:1300000000000013
#00815:00000023
#0081a:00000000000000330000000000000000
#01312:00130000
#01318:00130000
#0131b:00000013
#01315:00000013
#01412:00130000
#01418:00130013
#01415:0000000000000013
#01518:0000000000130000
#01515:0013
#01618:00130000
#0161b:0013
#01615:0000001300000000
#01712:00000013
#01718:0000000000000013
#01715:13
#01818:00001313
#01812:00000013
#01810:00000041
#02918:0013000000130000
#0291b:0000001300000013
#02912:00130013
#02915:0013
#0281b:00000013
#02815:0000000000130013
#02818:0013001300000000
#02812:00130000
#03615:0013001300000000
#03612:00000013
#03618:0000000000130023
#0361b:00130000
#03610:0000000000000041
#03518:0013000000001300
#0351b:0000000000130000
#03515:00130000
#03512:0000001300000000
#0341b:00000013
#03415:0000000000130023
#03715:0013000000001300
#0371b:0000130000000013
#03712:0000001300000000
#03718:0013
#05115:2300001300000000
#05118:0013
#05112:00000013
#0511b:00130000
#0241a:1400001400000000
#02417:00000014000000000014000000000000
#0191b:00130000
#01915:00130000
#01912:00000013
#01918:00000013
#05312:23000023
#0531b:00000023000000000000000000000023
#05315:0000002300000000
#05318:0023
#03255:0000000000000013
#0325b:0063
#01052:0053
#01158:53
#02752:0000000000530000
#02758:00530000
#0275b:0000002300000000
#02755:00000023
#0335b:0000000000000063
#03355:00630000
#03958:0000000000000053
#0405b:00230000000000000000000000000000
#04255:0063
#04252:0000000000230000
#04358:53
#0435b:0023000000000000
#04455:0000002300000000
#04452:0000530000000013
#04458:0000002300000000
#0445b:00630000
#03052:0000000000000053
#0305b:0000001300000000
#03058:23
#03155:0000000000000063
#0315b:0063
#05052:53
#00452:00130000
#0035b:0013
#00558:13
#00555:00000013
#0065b:0013
#00752:00130000
#00858:13
#0125b:00000063
#01255:00000063
#01352:00230000
#01358:00230000
#0135b:00000023
#01355:00000023
#01452:00530000
#01458:00530000
#0165b:0063
#01755:63
#02552:0000000000000053
#0255b:0000000000000063
#0295b:0000000000000063
#02855:0000000000000013
#02858:0000001300000000
#03655:0000001300000000
#03658:0000000000000013
#0355b:0000000000630000
#03555:00630000
#03552:0000002300000000
#03558:00000023
#0375b:0000000000000063
#03858:23
#0245a:6400006400000000
#02457:00000054000000000054000000000000
#01852:00000053
#01858:00000053
#0195b:00230000
#01955:00230000
#01952:00000023
#01958:00000023
#0205b:00630000
#02055:00630000
#02658:0000000000000013
#04958:13
#03455:0000000000000013
#05155:13
#003350:13000033000023000000000000000000
#003380:00000000000000000000000013000033
#004380:0023000000000000
#004320:00000000000000001300003300002300
#0053b0:00000000130000330000230000000000
#006320:13
#006340:00000033000000000000000000000000
#006350:0000002300000000
#0063b0:00000013
#006390:00000000000000000000000000000033
#007380:0023000000000000
#007350:0013
#007330:00000000000000000000003300000000
#007320:0000000000000023
#008380:00130000
#0083a0:00000000000000330000000000000000
#0083b0:0000000000230000
#009320:1300002300000000
#009350:00000033000000000000000000000000
#009380:00000013
#0093b0:00000000000000000000000000000033
#010380:0023000000000000
#010320:0013
#010350:00000023
#011380:13
#0113b0:00230000
#0123b0:13
#012380:0000002300000000
#0123b0:00000013
#013380:23
#012351:00000013
#013321:23
#013321:00130000
#013351:0023
#013380:00130000
#0133b0:0023
#0133b0:00000013
#014380:23
#013351:00000013
#014321:23
#014321:00130000
#014351:0023
#014380:00130000
#0143b0:0023
#0153b0:1300002300000000
#015380:00000033000000000000000000000000
#015350:00000013
#015320:00000000000000000000000000000033
#016350:0023000000000000
#0163b0:0013
#016380:00000023
#017350:13
#017320:00230000
#018320:13
#018350:0000002300000000
#018320:00000013
#019350:23
#018381:00000013
#0193b1:23
#0193b1:00130000
#019381:0023
#019350:00130000
#019320:0023
#019320:00000013
#020350:23
#019381:00000013
#0203b1:23
#0203b1:00130000
#020381:0023
#020350:00130000
#020320:0023
#021390:000000000000000000000000000000000000000000000000000000000000000000145454545454545454240000000000
#0213a0:000000000000000000000000000000000000000000000000000000000000000000000000000000000000000000000000000000000000000000000000000000000000005400540054005400540054005400540054000000000000000000000000
#023330:000000000000000000145454545454545454240000000000000000000000000000000000000000000000000000000000
#023320:000000000000000000000000000000000000005400540054005400540054005400540054000000000000000000000000000000000000000000000000000000000000000000000000000000000000000000000000000000000000000000000000
#023390:000000000000000000000000000000000000000000000000145454545454545454545454240000000000000000000000
#0233a0:000000000000000000000000000000000000000000000000000000000000000000000000000000000000000000000000005400540054005400540054005400540054005400540054000000000000000000000000000000000000000000000000
#0243a0:1400003400002400
#024370:00000034000000000034000000000000
#025350:00130000
#025320:0023
#0253b0:0000000000000013
#026390:0033000000000000
#026380:0000332300000000
#025321:0000000000000013
#026341:0033000000000000
#026351:0000332300000000
#027381:00132300
#0273b1:0000005300000000
#027321:0000000000130023
#027351:00000053
#0293b1:0000000000000013
#030381:53
#0303b1:0023000000000000
#030321:0000000000000013
#031351:00230000
#0313b1:0013
#031381:00000023
#031351:0000000000000013
#032321:00230000
#0323b1:0013
#032381:00000023
#033351:00130000
#033321:0023
#0333b1:0000000000000013
#034381:0000002300000000
#035351:00132300
#035321:0000005300000000
#0353b1:0000000000130023
#035381:00000053
#0373b1:0000000000000013
#038381:53
#0383b1:0023000000000000
#039381:13
#0393b1:00230000
#039351:0013
#039321:00000023
#039381:0000000000000013
#0403b1:00530000000000000000000000000000
#040381:00230000
#040321:0013
#040351:00000023
#041381:14000034000024000000000000000000
#041341:00000000000000001400003400002400
#0423a1:14000034000024000000000000000000
#042351:00001323
#042321:0000000000530000
#043381:13230000
#0433b1:0053000000000000
#044321:00132300
#044351:0000005300000000
#0443b0:00132300
#044380:0000005300000000
#050320:13
#050360:0000002300000000
#055320:00160000
#056320:000000000000000000000000000000000000000000000000000000000000000000000000000000000000000000000000000000000000000000000000565654565456545654565456545654565456545654565456545654565456545654565456
#057320:55
#058320:0000000000000022
