This file was generated by Ched 2.7.0.0.
#TITLE ""
#ARTIST ""
#DESIGNER ""
#DIFFICULTY 0
#PLAYLEVEL
#SONGID ""
#WAVE ""
#WAVEOFFSET 0
#JACKET ""
#REQUEST "ticks_per_beat 480"
#00002: 4
#BPM01: 145
#BPM02: 150
#00008: 01
#02408: 02
#TIL00: ""
#HISPEED 00
#MEASUREHS 00
#0241a:14000000001300000000000000000000
#02418:00000014000000000014000000000000
#02414:0000001400000000
#02412:23000014
#02413:0013000013000000
#02419:00000000000000000000001300000012
#0241b:00000023
#0251a:0012000000000000
#0251a:0012000000000000
#0251b:00000000001200000000000000000000
#0251c:0012
#02512:0013000013000000
#02516:0000000000130000
#02515:13000000130013000000000000130000
#02518:00000013
#03015:0000001300130000
#03018:00000000001300000000000013000000
#03012:13130000
#0301b:0013001300000023
#03016:0000000000000013
#03112:0000130000130013
#03117:0013001300000013
#0311b:00131313
#03116:0013
#03912:1400130000130013
#0391b:0013000013001300
#03917:1300000000000013
#03916:0013
#03919:0000001300000000
#0381a:00000014
#03816:000000000000130000001414
#03815:0013000000000000
#03818:00130000
#03817:13
#03819:0000000000130000
#0381b:0013
#03812:00130000
#04012:00130000
#04018:00001313
#04015:0000000000000013
#0401b:00130000000000000000000000000000
#00912:1300000000000000000000000000000013000000000000000000001300000000
#0091b:0000000000000000001300000000000000000000130000000000000000000000
#00917:0000001300000000000000000000000013000000000000001300000000000000
#00914:00000013000000000000000013000013
#00916:0000001300000000
#00919:13000013000000000000000000000013
#0111b:13001313
#01115:0000000000130013
#01116:00130000
#01112:0013001300001300
#01117:0013001300000000
#01118:00000000000000000000001300000000
#01216:0000000013000013
#01212:1300001300001300
#0121b:00000013000000001300000000001300
#01217:13000013
#02112:00000013000000001300001300000000
#0211b:1300001313000000
#0211b:0013
#02116:2300002300000013
#0211f:11
#02117:00000023000000000000000000000000
#02318:0000001300001313
#02315:00000000000000000000000000130000
#0231b:13000013130000001300000000000000
#02312:13
#02312:13
#0101b:0013000013000000
#01016:0013000000000000000000000000000013000000000000001300000000000000
#01012:0000130000130013
#01017:0000130000130013
#01019:0000001300000000
#01010:0041
#02818:0000001300000000
#0281b:00130013
#02815:00000000001300000000000000000000
#02817:0013000000130013
#02812:0013001300000023
#02812:0000001300000000
#02715:00000000001300000000000000000000
#02712:1300000000130013
#02717:0000000013130013
#02719:0000001300000000
#02713:00000000000000130000000000000000
#0271b:0013130000001300
#02710:0000000000410000
#02612:0000001500001300
#02616:0000000000130013
#02619:0013141500000000
#02614:0013000000000000
#02613:00140000
#02615:13
#0261b:0000000000000023
#0261f:0000000000000021
#03715:0000000000000013
#0371b:00000000001300000000000000001300
#03712:0013000013000000
#03714:0000001300000000
#03717:13
#03719:00000000000000130000000000000000
#03716:0000130000130000
#03718:00000013
#03317:0013001300001300
#0331b:0000130000130013
#03316:0000000000130013
#03312:0000001313000000
#03412:0013000000130013
#03414:00130000
#03416:0000001300001300
#03417:0013000000000000
#03418:0000000000000023
#04114:00000014000000000000000000130000
#04118:0013001400000000
#04113:00000000000000000000001400000000
#04119:0000000000130014
#04115:00000000001300000000000000000000
#04112:2323
#0411b:2323
#04212:23000014000000000000130000000000
#0421a:0013001400000000
#04216:0013
#04213:00000000001300000000000000000000
#0421b:23001313
#04218:0000000000130000
#04219:0000000000000013
#04317:1300000000000013
#0431b:0013000013000000
#04316:0013
#04315:0013000000001300
#04312:1300130000000013
#04314:0000001300000000
#04412:00000000000013000000130013000013
#0441b:0000131300130023
#04416:0013130000000000
#04418:0013
#04414:000000000000000000000000000000000000000000000000000000000000000000000000000000000000001300000013
#04413:000000000000000000000000000000000000000000231313
#04410:0000000000000041
#04517:0013130000000000
#04519:0000001300000000
#0451b:0000000013000013
#04518:00000013
#04513:131313131313131313131313131313131313131313000000
#04512:001300000013000000130000001300000013000000130000001300000013000000130000001300000013000000000000
#04514:000000130000001300000013000000130000001300000013000000130000001300000013000000130000000000000000
#04612:0013000000000000
#04614:00130000
#04616:0000001300000000
#04617:0000000000130000
#04619:00001313
#0461b:0000000000000013
#04712:0013000000001300
#04714:13130000
#04716:0000001300130000
#0471b:0000000000130013
#04719:0013
#04717:00000013
#0481b:0013000013000000
#04816:0013000013000000
#04814:0000000000130000
#04812:13130013
#04817:00130000
#04912:2300001300000013
#0491b:00000000000000001300001313000000
#05016:00000013000000000000000000000000
#05017:00001313
#05012:00000000000000000000000000000013
#0501b:0000000000000013
#0521a:14
#05217:0014000000000000
#05215:1300140000130000
#05212:0013001400000000
#05218:0000001300000000
#0521b:00130013
#05214:00000000000000000000000000000013
#05219:0000000000000013
#05216:00000000000000000000000000130000
#05415:0000000000001313
#05418:00000000000000000000000000130000
#05417:0013
#0541b:0023131300130013
#05416:0013231300130000
#05412:0013
#05518:13
#05512:13
#0551b:00130000
#00018:00000013000000000000000000000000
#00015:00000000000013000000000000000013
#00012:23001313
#00017:0013
#00019:0000000000130000
#0001b:23000013
#00118:00001300000000000000001300000000
#0011b:00131300
#00116:00130000
#00114:0000001300000000
#00115:0000000000000013
#00112:0013
#00212:1300130000000013
#00217:13
#00219:0013000000000000
#00215:00000000000000130000000000000000
#00218:00000000000000000000130000130000
#0021b:00130013
#00216:00000013
#00814:0013000000000013
#0081b:13000000000000130000000013000000
#00816:13000023
#00812:0000130000130000
#00817:00130000
#01316:0000130000000013
#0131b:0000130013000013
#01317:0000001300001300
#01312:1300001300001300
#01319:0013000000000000
#01314:0000000000130000
#0151b:1300000000000000000000000000000013000000000000000000001300000000
#01512:0000000000000000001300000000000000000000130000000000000000000000
#01516:0000001300000000000000000000000013000000000000001300000000000000
#01519:00000013000000000000000013000013
#01517:0000001300000000
#01514:13000013000000000000000000000013
#01712:13001313
#01718:0000000000130013
#01717:00130000
#0171b:0013001300001300
#01716:0013001300000000
#01715:00000000000000000000001300000000
#01817:0000000013000013
#0181b:1300001300001300
#01812:00000013000000001300000000001300
#01816:13000013
#01810:00000041
#01612:0013000013000000
#01617:0013000000000000000000000000000013000000000000001300000000000000
#0161b:0000130000130013
#01616:0000130000130013
#01614:0000001300000000
#01412:1300001300001300
#01419:0013000000000013
#01417:0000001300001300
#01416:00130000
#0141b:00130000
#0201b:1313
#02014:00001300000000000013000000001300
#02019:0000001300130000
#02012:00000000130000000000001300000000
#02017:00000013
#02016:0000001300000000
#02216:00001300000000000000002300000000
#02212:1300000013000013
#0221b:00000000000013000000001300000000
#02218:00130000
#02215:00000000001300000000000000000000
#02217:0000000023000023
#02918:00000000001300000000000000000000
#02912:0013130000001300
#02914:0000001300000000
#0291b:1300000000130013
#0291a:00000000000000130000000000000000
#02917:00000013
#02916:0000000013000013
#0321b:0000130000130013
#03216:0013001300000013
#03212:00131313
#03217:0013
#0361b:0000001300130013
#03618:00130013
#03615:00000000001300000000000000000000
#03617:0013000000000000
#03612:0013001300000000
#03612:0000001300000000
#03614:0000000000000023
#03610:0000000000000041
#03512:00000000001300000000130000001300
#0351b:0013000013000000
#03517:0000130000000013
#03519:0000001300000000
#03518:0000000000130000
#03516:13000013
#03514:00000000000000130000000000000000
#0511b:2300001300000000
#05112:00000000000000001300001313000000
#05317:13000000000013002300000000000013
#05316:00000013000000000000000013000000
#05312:23000000000023001300000000000023
#0531b:00000023000000000000000023000000
#00312:00000000000000001300000013000013
#00319:0000000000130000
#00316:1300001300000000
#00317:00000013000000001300000000000000
#0031b:13000013
#00310:41
#00412:00131300
#00419:0000001300000000
#0041b:0013000000000000
#00417:0000130013000013
#00416:00000000000000000000001300000000
#0051b:13000000130000130000000013000000
#00514:0013000000000013
#00516:13000013
#00512:0000130000130000
#00612:00000000000000001300000000000013
#00619:0000000000130000
#00616:1300001300001300
#00617:00000013000000001300000000000000
#0061b:13000013
#00712:00131300
#00719:0000001300000000
#0071b:0013000000000000
#00717:0000130013000013
#00716:00000000000000000000001300000000
#01917:0000130000000013
#01912:0000130013000013
#01916:0000001300001300
#0191b:1300001300001300
#01914:0013000000000000
#01919:0000000000130000
#03152:0000130000230013
#03157:0000000000000053
#03156:0063
#03952:1400000000230000
#0395b:0023000013000000
#03957:5300000000000053
#03956:0063
#04058:0013
#0405b:00230000000000000000000000000000
#0105b:0063
#01056:0023000000000000000000000000000000000000000000006300000000000000
#01057:0000000000230000
#01052:0000000000000023
#0115b:63
#01156:00630000
#01157:0023000000000000
#01152:0000002300000000
#02858:0000001300000000
#02857:0000000000000053
#02852:0000000000000013
#02752:2300000000130053
#02757:0000000000530053
#0275b:00000023
#0375b:0000000000000063
#03757:23
#03752:0053
#03756:0000000000230000
#03857:23
#03852:00530000
#03856:0023
#0335b:0000630000000053
#03356:0000000000230013
#03352:0053
#03357:0000002300000000
#04154:00000034000000000000000000000000
#04158:0000004400000000
#04153:00000000000000000000003400000000
#04159:0000000000000044
#04252:00000034000000000000230000000000
#0425a:0000004400000000
#04256:0063
#04357:5300000000000053
#0435b:0023000013000000
#04356:0013
#0455b:0000000013000013
#04553:535353535353535353535353535353535353535353000000
#04552:002300000023000000230000002300000023000000230000002300000023000000230000002300000023000000000000
#04554:000000230000002300000023000000230000002300000023000000230000002300000023000000230000000000000000
#04656:0000001300000000
#0465b:0000000000000013
#04756:0000001300630000
#0475b:0000000000000013
#04752:00000023
#01257:53000053
#01252:00000053
#01256:0000000000000023
#0125b:00000023000000000000000000002300
#01356:0000630000000023
#0135b:0000630063000023
#01357:0000002300005300
#01352:5300002300005300
#00959:63000063000000000000000000000000
#00957:0000002300000000000000000000000000000000000000000000000000000000
#0095b:0000000000000000002300000000000000000000000000000000000000000000
#00954:00000000000000000000000063000063
#00952:0000000000000000000000000000000000000000000000000000002300000000
#01652:0053
#01657:0023000000000000000000000000000000000000000000005300000000000000
#01656:0000000000230000
#0165b:0000000000000023
#01752:53
#01757:00530000
#01756:0023000000000000
#0175b:0000002300000000
#01554:53000053000000000000000000000000
#01556:0000002300000000000000000000000000000000000000000000000000000000
#01552:0000000000000000002300000000000000000000000000000000000000000000
#01559:00000000000000000000000053000053
#0155b:0000000000000000000000000000000000000000000000000000002300000000
#01852:00000023000000000000000000002300
#01856:63000063
#0185b:00000063
#01857:0000000000000023
#01452:5300002300000000
#01456:00630000
#01457:0000002300000000
#0145b:00630000
#0215b:13
#02252:0013
#02556:0000000000230000
#02552:0053
#0295b:2300000000000013
#02956:0000000000000063
#03052:23
#03055:0000001300000000
#03056:0000000000000063
#0305b:0000000000000013
#0325b:0000130000230013
#03256:0000000000000063
#03257:0053
#03457:0023000000000000
#03452:0000000000000053
#03458:0000000000000013
#0365b:0000001300000063
#03654:0000000000000013
#03557:0000000000000053
#03552:0000000000530053
#03558:0000000000130000
#03556:23000023
#04456:00630000
#04452:00000000000023000000000000000023
#04458:0053
#0445b:0000000000230013
#04454:000000000000000000000000000000000000000000000000000000000000000000000000000000000000002300000023
#04453:000000000000000000000000000000000000000000535353
#04857:00630000
#0485b:0023
#05357:13000000000013000000000000000013
#05356:00000013000000000000000013000000
#05352:0013
#05456:0013000000000000
#0545b:00130000
#00352:00000000000000001300000000000053
#00356:63
#00357:00000053000000000000000000000000
#0035b:00000063
#00452:00130000
#00457:0053
#00456:00000000000000000000006300000000
#0055b:13000000000000630000000013000000
#00552:00530000
#00652:00000000000000001300000000000053
#00656:63000063
#00657:00000053000000000000000000000000
#0065b:63000063
#00752:00135300
#00757:0053
#00756:00000000000000000000006300000000
#0085b:13000000000000630000000013000000
#00857:00530000
#00852:00530000
#02656:0000000000000063
#0265b:0000000000000013
#01957:0000530000000023
#01952:0000530053000023
#01956:0000002300006300
#0195b:6300002300006300
#02056:0000002300000000
#02052:00530000
#0205b:63
#02452:13
#0245b:00000013
#04952:13
#0515b:13
#003360:13
#003320:0000005300002300000000000000000000000000000000000000000000000000
#003371:00000013000000000000000000000000
#0033b1:0000000000000000005300002300000000000000000000000000000000000000
#0033b1:00000013
#003371:0000000000000000000000000000000000000000000000000000005300002300
#003320:00000000000000000000000000000013
#004360:0053000023000000000000000000000000000000000000000000000000000000
#004370:0013
#0043b0:0000000000000000000000000000000000000053000023000000000000000000
#004361:00000000000000000000001300000000
#004321:0000000000000000000000000000000000000000000000000053000023000000
#005321:00130000
#005361:0000000000000000000000530000230000000000000000000000000000000000
#0053b0:00000000000000130000000000000000
#005370:0000000000000000000000000000000000530000230000000000000000000000
#006360:13
#006320:0000005300002300000000000000000000000000000000000000000000000000
#0063b1:1300000000000000005300002300000000000000000000000000000000000000
#006371:0000005300003300000000000000000000000000000000000000000000000000
#006361:00000013
#006321:0000000000000000000000000000000000000000000000000000005300003300
#007361:0053000023000000000000000000000000000000000000000000000000000000
#0063b0:00000013
#006370:0000000000000000000000000000000000000000000000000000005300002300
#007371:0013
#0073b1:0000000000000000000000000000000000000053000023000000000000000000
#007320:0000000000000000000000000000000013000000000000000053000023000000
#007360:0000000000000000000000000000000000000053000033000000000000000000
#008370:0000000000000000130000000000000000530000230000000000000000000000
#0083b0:0000000000000000000000530000330000000000000000000000000000000000
#008321:00130000
#008361:0000000000000000000000530000230000000000000000000000000000000000
#009390:13000033000023000000000000000000
#009370:0000005300000000000000000000000000000000000000000000000000000000
#0093b0:0000000000000000005300000000000000000000000000000000000000000000
#009340:00000000000000000000000013000033
#009320:0000000000000000000000000000000000000000000000000000005300000000
#010360:0053000000000000000000000000000000000000000000000000000000000000
#010340:0023000000000000
#0103b0:00001323
#010370:0000000000530000
#010361:00000013
#010321:0000000000000053
#011361:23
#0113b0:13230000
#011370:0053000000000000
#011361:00132300
#011321:0000005300000000
#012371:1300002300000000
#0123b1:00000053000000000000000000000000
#012321:00000013
#012361:0000000000000033
#013321:3300003300000000
#013361:00332300
#012370:00000013
#0123b0:0000000000000033
#013370:23
#0133b0:0000130033000033
#013370:0000003300003300
#014370:23
#013321:00000013
#013361:0000000000000033
#014321:3300003300000000
#014361:00332300
#0143b0:00132300
#014370:0000003300000000
#015340:13000033000023000000000000000000
#015360:0000005300000000000000000000000000000000000000000000000000000000
#015320:0000000000000000005300000000000000000000000000000000000000000000
#015390:00000000000000000000000013000033
#0153b0:0000000000000000000000000000000000000000000000000000005300000000
#016370:0053000000000000000000000000000000000000000000000000000000000000
#016390:0023000000000000
#016320:00001323
#016360:0000000000530000
#016371:00000013
#0163b1:0000000000000053
#017371:23
#017320:13230000
#017360:0053000000000000
#017371:00132300
#0173b1:0000005300000000
#018361:1300002300000000
#018321:00000053000000000000000000000000
#0183b1:00000013
#018371:0000000000000033
#0193b1:3300003300000000
#019371:00332300
#018360:00000013
#018320:0000000000000033
#019360:23
#019320:0000130033000033
#019360:0000003300003300
#020360:23
#0193b1:00000013
#019371:0000000000000033
#0203b1:33
#020371:00230000
#020320:00132300
#020360:0000003300000000
#021370:000000000000000000000000000000000000000000000000000000000000000000130000535353000000000000535300
#021380:000000000000000000000000000000000000000000000000000000000000000000000000000000000000000000000000000000000000000000000000000000000000005300530000000000000000530053000000000053005300000000000053
#021360:000000000000000000000000000000000000000000000000000000000000000000005353000000000000000000000053
#021390:000000000000000000000000000000000000000000000000000000000000000000000000000000000000000000000000000000000000000000000000000000000000000000000053005300530000000000005300530000000000005300530000
#0213a0:000000000000000000000000000000000000000000000000000000000000000000000000000000000000000000000000000000000000000000000000000000000000000000000000000000000053005300000000000000530053000000000000
#0213b0:000000000000000000000000000000000000000000000000000000000000000000000000000000000000000000000000000000000000000000000000000000000000000000000000000000000000000000530053005300000000000000000000
#022360:53
#022390:005300000000000053005300230000000000000000000000000000000000000000000000000000000000000000000000000000000000000000000000000000000000000000000000000000000000000000000000000000000000000000000000
#022370:005300000000000000000000000000000000000000000000000000000000000000000000000000000000000000000000
#0223a0:000000530053000000000000000000000000000000000000000000000000000000000000000000000000000000000000000000000000000000000000000000000000000000000000000000000000000000000000000000000000000000000000
#022380:000053530000000000000000000000000000000000000000000000000000000000000000000000000000000000000000
#0223b0:000000000000005300530053000000000000000000000000000000000000000000000000000000000000000000000000000000000000000000000000000000000000000000000000000000000000000000000000000000000000000000000000
#023360:000000000000000000130000535353000000000000535300000000535353000000000000000000000000000000000000
#023350:000000000000000000000000000000000000005300530000000000000000530053000000000053005300000000000000000000000000000000000000530053005300530000000000000000000000000000000000000000000000000000000000
#023370:000000000000000000005353000000000000000000000053535353000000000000000000000000000000000000000000
#023340:000000000000000000000000000000000000000000000053005300530000000000005300530000000000005300530053005300530053000000000000000000000000000053005300000000000000000000000000000000000000000000000000
#023330:000000000000000000000000000000000000000000000000000000000053005300000000000000530053000000000000000000000000005300530053005300530053000000000000230000000000000000000000000000000000000000000000
#023320:000000000000000000000000000000000000000000000000000000000000000000530053005300000000000000000000000000000000000000000000000000000000005300530053000000000000000000000000000000000000000000000000
#025320:00001323
#025360:0000000000530000
#0253b0:0000000000000013
#026380:23
#0263b0:0000000000130000
#026370:00000023
#026360:0000000000000013
#027320:53
#027360:0023000000000000
#027370:0000000000130053
#0273b0:00000053
#0283b0:23
#027321:0000000000000013
#028361:23
#028321:0000000000130000
#028361:00000023
#028371:0000000000000013
#0293b1:53
#029371:0023000000000000
#029361:0000000000000013
#030321:53
#030361:0023000000000000
#030361:0000000000000013
#031321:0023000000000000
#031361:00001323
#031321:0000000000530000
#031371:0000000000000013
#0323b1:0023000000000000
#032371:00001323
#0323b1:0000000000530000
#032361:0000000000000013
#033321:0023000000000000
#0333b1:00132300
#033371:0000005300000000
#033320:00001323
#033360:0000000000530000
#0333b0:0000000000000013
#034370:0053000000000000
#0343b0:0000002300000000
#034370:0000000000130000
#0343b0:00000023
#034320:0000000000000013
#035360:53
#035320:0023000000000000
#035320:0000000000130053
#035360:00000053
#036360:23
#035371:0000000000000013
#0363b1:23
#036351:0000000000130000
#036321:00000023
#0363b1:0000000000000013
#037371:53
#0373b1:0023000000000000
#037321:00001323
#037361:0000000000530000
#0373b1:0000000000000013
#038371:53
#0383b1:0023000000000000
#038321:00130023
#038361:0053
#039371:13230000
#0393b1:0053000000000000
#039361:00001323
#039321:0000000000530000
#039371:0000000000000013
#0403b1:00530000000000000000000000000000
#040371:00230000
#040321:0013
#040351:00000023
#042361:00001323
#042321:0000000000530000
#043371:13230000
#0433b1:0053000000000000
#043371:0000000000000013
#0443b1:0023000000000000
#044361:00130000
#044321:0000005300000000
#044351:0023
#044380:0013
#0443b0:0000000000530000
#044370:00000023
#044330:000000000000000000000000000000000000000000135353
#044340:000000000000000000000000000000000000000000000000000000000000000000000000000000000000005300000053
#044320:00000000000000000000000000000053
#045330:535353535353535353535353535353535353535353230000
#045320:005300000053000000530000005300000053000000530000005300000053000000530000005300000053000000000000
#045340:000000530000005300000053000000530000005300000053000000530000005300000053000000530000000000000000
#046370:0013000000000000
#0463b0:0000002300000000
#046320:0000000000130000
#046360:0000000000000023
#047370:0013000000000000
#0473b0:0000002300000000
#047360:0000000000130023
#047320:00000053
#048370:00130023
#0483b0:0053
#049360:14240000
#049360:00001424
#0503a0:1400002400000000
#050321:0000001400002400
#051361:14240000
#051361:00001424
#055351:00130000
#057321:53
#058321:0000000000000022
#0563a0:000000000000000000000000000000000000000000000000000000000000130000000053535353530000000000000000
#056390:000000000000000000000000000000000000000000000000000000000000000000000000000000000000000000000000000000000000000000000000005300530053005300530000000000000000000053005300530053005300000000000000
#0563b0:000000000000000000000000000000000000000000000000000000000000005353535300000000000000000000000000
#056380:000000000000000000000000000000000000000000000000000000000000000000000000000000000000000000000000000000000000000000000000000000000000000000000053005300530053005300000000000000000000530053005300
#056370:000000000000000000000000000000000000000000000000000000000000000000000000000000000000000000000000000000000000000000000000000000000000000000000000000000000000000000530053005300530053000000000000
#056360:000000000000000000000000000000000000000000000000000000000000000000000000000000000000000000000000000000000000000000000000000000000000000000000000000000000000000000000000000000000000005300530053
#058360:0000000000000022
