This file was generated by Ched 2.6.4.0.
#TITLE ""
#ARTIST ""
#DESIGNER ""
#DIFFICULTY 0
#PLAYLEVEL
#SONGID ""
#WAVE ""
#WAVEOFFSET 0
#JACKET ""
#REQUEST "ticks_per_beat 480"
#00002: 4
#BPM01: 145
#BPM02: 150
#00008: 01
#02408: 02
#TIL00: ""
#HISPEED 00
#MEASUREHS 00
#02412:14
#02416:0000001400000000
#02413:00000000000000000034000000000000
#02415:00000034000000000000000000000000
#00912:1414
#00918:00140000
#0091a:00000014
#01014:1414
#0101a:00140000
#01018:00000014
#01010:0041
#01112:14
#0111a:00140000
#0151a:1414
#01514:00140000
#01512:00000014
#01618:1414
#01612:00140000
#01614:00000014
#0171a:14
#01712:00140000
#00818:00000014
#0081a:14
#00814:00140000
#00813:0014
#01414:00000014
#01412:00140000
#0141a:00140000
#02112:14
#02114:00000034140000000000000000000000
#0211f:11
#02113:0000003400000000
#01212:14
#0181a:14
#01810:00000041
#02517:00000014
#0251a:0014
#02512:00140000
#02518:0000000000000034
#02714:00141400
#02718:0014001400140000
#02710:0000000000410000
#03014:00000014
#03018:0000000000140000
#03314:0014
#03318:00000014
#03319:0000000000000034
#04216:00000014
#04212:0014
#0431a:14140000
#04316:0014
#04312:00000014
#0411a:14
#04116:0014
#0221a:0014
#02218:00000000000000000000003414000000
#02219:0000000000000034
#04412:00140000
#0441a:14
#04417:0000000000000014
#04410:0000000000000041
#05412:0014
#05416:00000014
#0551a:14
#0491a:14
#04918:00140000
#05012:14
#05014:00140000
#05118:14
#0511a:00140000
#05214:14
#05212:00140000
#02618:00000014
#02614:0000000000140024
#0261f:0000000000000021
#0261a:00340000
#02918:00141400
#02914:0014001400000000
#02814:00000014
#02818:0000000000140024
#0031a:14141400
#00312:00000014
#00310:41
#00412:14140000
#00418:00001414
#00518:14
#00514:00141414
#0061a:14
#00619:00140000
#00618:0014
#00612:00000014
#00713:14
#00714:00140000
#00718:0014
#00719:00000014
#02012:00140000
#0201a:00140000
#03512:0000140014000014
#03518:0014001400140000
#03818:0000000000000014
#03814:00000014
#0381a:0034000000000000
#0341a:00000014
#03414:0000000000140024
#0371a:00140000
#03714:0014001400000000
#03719:0000000000000034
#03612:00000014
#03618:0000000000140024
#03614:0014000000000000
#03610:0000000000000041
#04618:0014
#04614:00000014
#04612:00140000
#0471a:14
#04712:00140000
#04718:0014
#04714:00000014
#04816:00140000
#0481a:14
#02452:54
#02456:0000006400000000
#02152:54
#02154:00240000
#0115a:00640000
#01252:54
#01752:00540000
#0185a:64
#02557:00000054
#0255a:0064
#03358:00000054
#0415a:64
#04156:0054
#0225a:0064
#02258:00000024
#0495a:64
#04958:00240000
#05052:54
#05054:00240000
#05158:54
#0515a:00240000
#05254:64
#05252:00240000
#03552:0000000000000054
#03654:0064000000000000
#0265a:0000001400000000
#0345a:0000001400000000
#0425a:14
#04457:0000000000000054
#0003a0:1424
#000320:00000014
#001320:00240000
#001380:0014
#002380:24
#002340:00140024
#0113a0:00140000
#011380:00000024
#012320:14
#012340:0024
#0123a0:00000014
#0133a0:24
#013340:00142400
#013380:00000014
#014380:24
#017320:00140000
#017340:00000024
#0183a0:14
#018380:0024
#018320:00000014
#019320:24
#019380:00142400
#019340:00000014
#020340:24
#021320:1424
#021340:00000034540000000000000000000000
#021330:0000003400000000
#0223a0:0014
#022380:00000000000000000000003454000000
#022390:0000000000000034
#0233a0:24
#024320:14000024
#024350:00000034000000000000000000000000
#024360:0000003400000000
#024330:00000000000000000034000000000000
#0253a0:0014
#025370:00000034
#025380:0000000000000034
#0263a0:0034342400000000
#027320:0000000000000014
#028340:0034000000000000
#028320:0000002400000000
#029340:0000000000143434
#030320:0034000000000000
#030340:0000002400000000
#030380:0000000000000014
#031380:00240000
#031320:0014
#031340:00000024
#0323a0:14
#032380:00240000
#032380:0014
#0323a0:00000024
#032321:0014
#032341:00000024
#033341:14
#033321:00240000
#0333a0:14
#033380:00240000
#033380:00000014
#033390:0000000000000034
#0343a0:0034342400000000
#035320:0000000000000014
#036340:0034000000000000
#036320:0000002400000000
#0373a0:0014
#037380:00000034
#037390:0000000000000034
#0383a0:0034240000000000
#039340:14240000
#039380:0014
#0393a0:00000024
#040340:14
#040320:00240000
#040380:0014
#0403a0:00000024
#040321:0014
#040341:00000024
#0413a1:14
#041361:0034
#0423a1:24
#0443a1:0014
#044371:0000000000000034
#0463a1:24
#048321:00001424
#0493a1:1424
#049381:00540000
#050321:1424
#050341:00540000
#051381:1424
#0513a1:00540000
#052341:1424
#052321:00540000
#0533a1:14000034000034003400000000000000
#053371:00000000000000000000000034000034
#054371:0034240000000000
#055321:00160000
#058321:0000000000000023
