This file was generated by Ched 2.7.0.0.
#TITLE ""
#ARTIST ""
#DESIGNER ""
#DIFFICULTY 0
#PLAYLEVEL
#SONGID ""
#WAVE ""
#WAVEOFFSET 0
#JACKET ""
#REQUEST "ticks_per_beat 480"
#00002: 4
#BPM01: 106
#00008: 01
#TIL00: ""
#HISPEED 00
#MEASUREHS 00
#0491a:14
#04914:0014
#00219:14
#00319:14
#03019:14
#03013:14
#0301f:11
#03918:16
#03912:0016
#04318:1616
#04712:14
#04718:0014
#03518:2616
#0351f:21
#03510:0041
#00413:14
#00513:14
#01218:14
#01210:41
#01314:14
#01812:0016
#01818:26
#01810:41
#01918:1616
#02218:0016
#02212:16
#02312:1616
#0261a:14
#02614:0014
#02610:41
#02812:14
#02818:0014
#03712:1616
#04112:16
#04118:0016
#04412:1616
#04410:41
#04018:1616
#04212:1616
#00712:14
#00818:14
#00914:14
#0101a:14
#01112:14
#0061a:24
#00610:41
#0143a0:14
#0153a0:24
#016320:14
#017320:24
#020320:1626
#021380:1626
#024380:1626
#025320:1626
#0273a0:1424
#029320:1424
#031390:1434
#032390:24
#033330:1434
#034330:24
#036380:1626
#038320:1626
#045380:1636
#046380:26
#048320:1424
#0503a0:14003424
