This file was generated by Ched 2.7.0.0.
#TITLE ""
#ARTIST ""
#DESIGNER ""
#DIFFICULTY 0
#PLAYLEVEL
#SONGID ""
#WAVE ""
#WAVEOFFSET 0
#JACKET ""
#REQUEST "ticks_per_beat 480"
#00002: 4
#BPM01: 106
#00008: 01
#TIL00: ""
#HISPEED 00
#MEASUREHS 00
#0021b:001300130000001300000000
#00216:000000130013000000000000000000000000000000000000
#00212:230000001300130000131300
#00217:000000000000000000130013000000000000000000000000
#00218:000000000000000000000000000000000013000000130000
#00215:000000000000000000000000000000130000000000000013
#0031b:131300
#00318:001300130000131300131300
#00315:000000130000000000130013000000000013000000130000
#00312:000000000013000000000000000000130000000000000013
#00612:130000000000000000000014000000000000140000000000
#00616:0014141400000000
#0061a:000000000000000000000014000000000000140000000000
#00618:000000000000000000000000000013000000000013000013
#00615:0000000000130013
#0061b:13
#00610:41
#00115:000000000000160000000000000000000000160000000000000000000000160000000000000000000000160000000000000016000000160000001600000016000000160000001600001600160016001600160016000000000000000000000000
#00114:000000000000160000000000000000000000160000000000000016000000160000001600001600160016000000000000
#00116:160000000000160000000000160016001600161616000000
#00015:0016001600160016
#00014:00160016
#00016:1616
#0071a:141400000000000000000000
#00718:00131300
#00715:000000000000000013000000000000130000000000130013
#00712:140014000013000000000013000000000000130000000000
#0071b:0000001300000000
#0081b:13
#0081c:000012000000000000000012000000000000000000000000
#00816:0012000000000000
#00814:00120000
#00818:000000000000000012000000000000120000000013000000
#00812:000000000000000000120000000000000000000000000013
#0081a:000000000012000000000000000000000000000000000000
#00912:000013000000000000000013000000000000000000000000
#00915:000000131300001300130000
#0091b:000000000000000000130000000013000000000000000000
#00918:000000130013000000000000130000000013000000000000
#01314:001300001300000000130000
#01319:000000130000000000130000000000000013000000000000
#01316:000000000013000000000000000000130000000000000000
#0131b:000000130000001300000000
#01317:130000000000000000000000000000000000000013000013
#01312:000000000000000000000013000000000000000000130000
#0141b:0000131313000000
#01412:1300000000001313
#01416:0013
#01612:000000140014000014000000000000000014000000140000
#0161a:000000140014000014000014000000140000000000000000
#01616:240000000000141400141400
#01716:140000000012000000220022000000000000000000000000
#0171a:001400000000000000000000
#01718:000000000000120012000022000000000000000000000000
#01712:001400000000000000120000
#01819:001300000000130000001300
#01814:000000130000000000000013000000000000000000130000
#0181b:230000000000000000130000000000000013000000000000
#01816:230000001300000000130000
#01817:000000000013000000000000000000230000000000000013
#01812:000000230000001300000000
#01810:41
#01918:000000130013000000130000000000000000000000000000
#01915:000000131300000000000000
#01919:000000000000000000000013000000000000000000000000
#01914:0013
#01912:2300000000000013
#0191b:0000000000000013
#02012:000000130000130000001400
#02017:000000000013000000000013000000000000000000000013
#0201a:000000000014
#0201b:1300000000130000
#02016:13
#02015:00000013
#02018:000000000000000000000000000000000013000000000000
#02617:000013000000000000000013000000000000000013000013
#02612:1313000013000013
#02616:000000000013000013000000000000130000000000000000
#0261b:000000000000130000130000000013000000000000000000
#02619:000000000000000000000000000000000013000000000000
#02614:00000013
#0261a:24
#02610:41
#02712:13131313
#0271a:000000000012000000000000000012000000000000000000
#0271c:000000000000000012000000000000000012000000000000
#02716:0012001200120012
#02718:000012000000000000000012000000000000000012000000
#0321b:0000000000000013
#03216:0012000000120013
#0321c:0012000000000000
#0321a:240000120000001200000000
#03214:00121200
#03218:000000000000000000120012000000000000120000000000
#03212:0000001200000000
#03215:23
#03315:0013
#03312:000000000000000000000000000000140014000014000000
#03318:000000000000000000000013000000000000000000000000
#0331a:000000000000000000000000000000140014000014000000
#0391b:0013130013000000
#03916:0000000013140000
#0391a:000000000000000000000000000000000014000000000024
#03918:000000000013
#03917:2300001300000000
#03915:0000000000000013
#03912:130000000000000000130000000000000014000000000024
#0401b:001300000000000000130000
#04015:000000130000000000000000000000000000000000130013
#0401a:000000000013000000000000000000000000000000000000
#04013:0000001300000000
#04019:001300
#04012:00002313
#04018:000000000000000000000013000000000000000013000000
#04014:00130000
#04112:000000000000130000141400
#04118:130000000000001300000000
#04115:0000000000130000
#0411a:000000000014000000000000000000000000140014000000
#0411b:000000000000000000000000000000000000000000000013
#04116:000000140000001400000000000000000000000000000013
#04219:000000000013000000000000000000000000000000000000
#0421b:000000000000000013000000000000000000000000130000
#04212:0013000013000013
#04217:000013000000000000000013000000000000000000000000
#04214:00130000
#04216:0000001300000000
#0151b:0000131313000013
#01512:1300000000001313
#01517:13
#01516:0013
#03612:230000130000000000000000130013000000000000130000
#03618:0000000000130013
#0361b:000000000013000000000000000000000000000000000000
#03614:001300
#03616:00130000
#03617:000000130000000000000013000000000000000000000000
#03619:0000001300000000
#03712:000000000013000000000000000000000013000000000014
#0371a:000000000000000000001300000000000000000000000014
#03718:0000130000000013
#03719:000000000000000013000000000000130000000000000000
#03715:000000000000000000130000000000000000000013000000
#03716:000000000000000000000013000000000000000000000000
#0371b:0013
#03714:000000000000001300000000
#03717:00000013
#03812:000014000000000014000000240000000000000000240000
#03816:000000000000140000001400000000000000140000001400000000000000000000140000000000000000000000000000
#0381a:00142400
#0451a:000000000000000000140000000024000000000000000000
#04512:000000130000000000000014000024000000000000000000
#04516:130014240012
#04518:000000130000000000000000000000000012000000120000
#0471b:000013000013000000000000000013000000000000000013
#04718:000000000000000013000013000000000013000000130000
#04715:230000000000000000000000230000130000000013000000
#04712:00230013
#04812:130000000013000000000000130000000000130000000000
#04815:0013000000130023
#0481b:000000000000000000130000000013000000000000000000
#04818:000000000000130000000013000000000013000013000000
#01212:130012000000000000000012000000000000000000000013
#01218:0012000000000000
#0121a:00120000
#01216:000000000000000012000000000000120012000012000000
#0121c:0000001200000000
#01214:000000000012000000000000000000000000000000000000
#01210:41
#03515:000013000000000000000000000000000013000000000000
#03518:0013000000001300
#0351b:000000000013000013000000000013000000000013000000
#03516:0000001300000000
#03517:000000000000000000000013000000000000000000000013
#03512:2300230013230013
#0351f:21
#03510:0041
#03118:0014000014000014
#03116:1400001400001400
#0311a:0000240000240000
#03115:0000230000230000
#00412:001300130000001300000000
#00417:000000130013000000000000000000000000000000000000
#0041b:230000001300130000131300
#00416:000000000000000000130013000000000000000000000000
#00415:000000000000000000000000000000000013000000130000
#00418:000000000000000000000000000000130000000000000013
#00512:131300
#00515:001300130000131300131300
#00518:000000130000000000130013000000000013000000260000
#0051b:000000000013000000000000000000130000000000000000
#0101b:13
#01016:000000140014000000000000000000000000000000000000
#01018:000000001300000000131300
#01012:130000000000141400000000
#0101a:000000000000141400000000
#01015:000000000000000000130000000000000013000000130013
#01112:1414001300130000
#01115:0000130013000013
#01118:000000000000000013000000000013000000000013000013
#0111a:1414000000000000
#0111b:000000000013000000000013000000000000130000000000
#02214:001300000000130000001300
#02219:000000130000000000000013000000000000000000130000
#02212:230000000000000000130000000000000013000000000000
#02217:230000001300000000130000
#02216:000000000013000000000000000000230000000000000013
#0221b:000000230000001300000000
#02315:000000130013000000130000000000000000000000000000
#02318:000000131300000000000000
#02314:000000000000000000000013000000000000000000000000
#02319:0013
#0231b:2300000000000013
#02312:0000000000000013
#0211b:001300001300000000000000
#02118:000000000013000000000000000000000000000000000000
#02115:0000001300000000
#02112:0000000000000013
#0241b:00131300
#02416:000000000013000000000013000000000000000000000013
#02412:130000000000000000000000000000130000000014000000
#02417:13
#02418:00000013
#0241a:000000000014
#02415:000000000000000000000000000000000013000000000000
#02512:000013000000000013000000000000000024000000000000
#02515:000000000013000000000013000000000000000000000000
#02516:0000000000242424
#0251a:000000240024
#02816:000013000000000000000013000000000000000013000013
#0281b:1313000013000013
#02817:000000000013000013000000000000130000000000000000
#02812:230000000000130000130000000013000000000000000000
#02814:000000000000000000000000000000000013000000000000
#02819:00000013
#0291b:13131313
#02914:000000000012000000000000000012000000000000000000
#02912:000000000000000012000000000000000012000000000000
#02918:0012001200120012
#02916:000012000000000000000012000000000000000012000000
#03018:000013000013000000000000000000000000000000000000
#03015:000000000000130000000013000000000000000000000000
#0301f:11
#0301a:00000024
#03012:00000024
#04312:000000130000130000000000130000000014000000000024
#04316:2300001300140000
#04315:000000000013
#04318:0000000000000013
#0431b:1300001300000000
#04317:0013
#0431a:000000000000000000000000000000000014000000000024
#04412:001300000000000000130000
#04418:0013000000000013
#04413:000000000013000000000000000000000000000000000000
#0441a:0000001300000000
#04414:001300
#04417:000000000000000000000000000000000013000000000000
#04415:000000000000000000000013000000000000000013000000
#04419:00130000
#0441b:000000000000000000000000230000000000000000000013
#04410:41
#04614:120000000000000000000012000012000000000000000000
#0461a:000012000000000000000012000012000000000000000000
#04616:000000000012000000120000000000000000220000000000
#04618:000000000000120000000000000000000012000000000000
#04912:000013000013000000000000000013000000000000000013
#04915:000000000000000013000013000000000013000000130000
#04918:230000000000000000000000230000130000000013000000
#0491b:00230013
#0501b:130000000013000000000000130000000000130000000000
#05018:0013000000130024
#05012:000000000000000000130000000013000000000000000000
#05015:000000000000130000000013000000000013000000000000
#05014:000000000024
#05016:000000000000000000000000000000000000000000000024
#03412:000000000000242400000000
#0341a:000000000000242400000000
#03414:0000000000002424
#03418:000000000000000000000000000000000024000024000024
#00155:000000000000560000000000000000000000660000000000000000000000560000000000000000000000660000000000000056000000660000005600000066000000560000006600005600660056006600560066000000000000000000000000
#00154:000000000000260000000000000000000000260000000000000026000000260000002600002600260026000000000000
#00156:260000000000260000000000260026002600262626000000
#00055:0056006600560066
#00054:00260026
#00056:2626
#00952:000000000013
#00955:00000053
#04052:0013
#00558:0000000000000016
#0305a:00000014
#03052:00000014
#04555:000000000013000000000000000000000000000000000000
#0455b:000000000013000000000000000000000000000000000000
#04558:0053000000000000
#04552:0053000000000000
#00858:000000000053
#0085b:000000000000000000000000000000000000000000000013
#0125c:000000000012
#01452:53
#0145b:0053
#01552:53
#0155b:0053
#01952:53000013
#0195b:00000013
#0205b:53
#02057:000000000053000000000000000000000000000000000000
#02056:53
#02052:00535300
#0235b:63000013
#02352:00000013
#02155:0000005300000000
#0245b:00636300
#02452:63
#02457:63
#02456:000000000063000000000000000000000000000000000000
#02756:0000000000000012
#02958:0000000000000012
#03256:0000000000520000
#03652:000000000000005300000000
#03658:0000000000530000
#03655:00000013
#0365b:00000013
#0375a:000000000000000000000000000000000000000000000054
#0385a:0054
#03856:00000000000000000000002400000000
#03952:53
#03957:13
#0415a:000000000054000000000000000000000000000000000000
#04156:000000000000002400000000000000000000000000000000
#04257:000000000000000000000053000000000000000000000000
#04252:0053
#0435b:63
#04356:13
#0445b:0013
#01152:0000000000530000
#0265a:14
#0265b:00130000
#02652:0013
#02852:13130000
#0285b:0013
#0025b:00130000
#00252:0013
#00452:00130000
#0045b:0013
#01856:13
#02257:13
#03552:13
#01656:14
#01758:000000000000000000000052000000000000000000000000
#000360:1656
#000350:0056005600560056
#000340:00560056
#001360:560000000000560000000000560056005600565656260000
#001350:000000000000560000000000000000000000560000000000000000000000560000000000000000000000560000000000000056000000560000005600000056000000560000005600005600560056005600560056000000000000000000000000
#001340:000000000000560000000000000000000000560000000000000056000000560000005600005600560056000000000000
#0073b0:0000000000130000
#007380:00000023
#008360:0000000012220000
#0083b0:000000000000000000000000000000000000130000000023
#008380:000000000033
#009350:00000013
#009320:000000000023
#011320:0000000000130000
#011360:00000023
#012380:0000000012220000
#0123c0:000000000000000000122200
#014320:13
#014360:00230000
#0143b0:0013
#014370:00000023
#015320:13
#015360:00230000
#0153b0:0013
#015370:00000023
#017380:000000000000000000000012000000000000000000000000
#0173c0:00000022
#019320:13
#019350:0023000000000000
#019320:000000000000001300230000
#0193b1:0000000000132300
#0203b1:13
#020371:0023000000000000
#020360:13
#020320:0023000000000000
#020370:000000000013000000000000000000000000000000000000
#0203b0:0000002300000000
#020321:00130000
#020361:0000002300000000
#020321:0013
#020361:0000000000230000
#021321:13
#021351:002300000000000000000000
#021351:0013000000000000
#021321:000000000023000000000000000000000000000000000000
#021321:00130000
#021351:002300
#021351:0000001300000000
#021321:0000000000230000
#021380:000000000000000000000000000000130033003300330033
#021370:000000000000000033333333
#022370:23
#0233b0:13
#023380:0023000000000000
#0233b0:000000000000001300230000
#023321:0000000000132300
#024321:13
#024361:0023000000000000
#024370:13
#0243b0:0023000000000000
#024360:000000000013000000000000000000000000000000000000
#024320:0000002300000000
#0243b1:00130000
#024371:0000002300000000
#0243b1:0013
#024371:0000000000230000
#0253b1:13
#025381:002300000000000000000000
#025381:0013000000000000
#0253b1:000000000023000000000000000000000000000000000000
#0253b1:00130000
#025381:002300
#025381:0000001300000000
#0253b1:000000000000000000000023000000000000000000000000
#030351:13
#030321:002300000000000000000000
#030381:0000001300000000
#0303b1:000000000000000000000023000000000000000000000000
#030321:000000000000000000000000000000145454240000000000
#030331:000000000000000000000000000000000000000000000000000000000000005400540054000000000000000000000000
#031321:1323000000000000
#031321:0000001323000000
#031321:0000000000001323
#032361:0000000000120000
#032321:00000022
#033321:13
#033361:0023000000000000
#033370:13
#0333b0:0023000000000000
#033360:00130000
#033320:0000002300000000
#0333b1:00130000
#033371:0000002300000000
#033371:000000000000000000000000000000000000000000000012
#034371:0000002200000000
#036321:000000000000001300000000
#036351:00000023
#036380:0000000000130000
#0363b0:00000023
#0373b0:13
#037370:0023000000000000
#037361:13
#037321:0023000000000000
#0373a1:000000000000000000000000000000000000000000000014
#038361:002400000000000000000000
#0383a1:0000000014000024
#038361:00000000000000000000005400000000
#039321:13
#039361:00230000
#0413a1:000000000014000000240000000000000000000000000000
#041361:000000000000005400000000000000000000000000000000
#041320:000000000014000000240000000000000000000000000000
#042370:000000000000000000000013000000000000000000000000
#0423b0:00000023
#042321:0013
#042361:00000023
#0433b1:13
#043371:00230000
#045321:0013000000000000
#045351:000000000023000000000000000000000000000000000000
#045380:0013000000000000
#0453b0:000000000023000000000000000000000000000000000000
#047350:000000130023000000000000000000000000000000000000
#047320:000000000000000000130023000000000000000000000000
#0483b0:000013000023000000000000000000000000000000000000
#048350:000000000000000013000023000000000000000000000000
#049380:000000130023000000000000000000000000000000000000
#0493b0:000000000000000000130023000000000000000000000000
#050320:000013000023000000000000000000000000000000000000
#050380:000000000000000013000023000000000000000000000000
