This file was generated by Ched 2.7.0.0.
#TITLE ""
#ARTIST ""
#DESIGNER ""
#DIFFICULTY 0
#PLAYLEVEL
#SONGID ""
#WAVE ""
#WAVEOFFSET 0
#JACKET ""
#REQUEST "ticks_per_beat 480"
#00002: 4
#BPM01: 106
#00008: 01
#TIL00: ""
#HISPEED 00
#MEASUREHS 00
#00218:000013000000000000130000000000000013000000130000
#00215:000000130000000013000000000000130000000000000013
#0021b:000000000013000000000000000013000000000000000000
#00212:000000000000000000000013000000000000000013000000
#00318:000013000000000000130000000000000000000000000000
#0031b:000000000013000000000000000000000000000000000000
#00315:000000130000000013000000000000000000000000000000
#00312:000000000000000000000013000000000000000000000000
#00612:130000000000000000000014000000000000000000000000
#00618:000000130000000000130000000013000000000000130000
#00615:000000000000130000000000000000130000000013000013
#0061a:00000014
#0061b:13
#00610:41
#00715:0000130013000013
#00718:000000000000000013000000000000130000000000000013
#0071b:000000000013000000000013000000000000000000000000
#00712:000014000000000000130000000000000000000000000000
#0071a:14
#00815:13
#00818:001300000000000000001300
#00812:0013000000000000
#00813:00130000
#0081a:001300
#00814:0000001300000000
#00819:000000000013000000000000000000000000000000000000
#0081b:000000000000000000000013000000000000000000000000
#00912:001300001300001400000000
#0091b:00131300
#00918:000000130000000000130000000000000013000000000000
#00915:000000000013000000000013000000000000130000000000
#01318:000013000000000013000000000000000000000000000013
#01312:0013001300000000
#0131b:000000000013000000000013000013000000000000000000
#01315:1300130000130000
#0131a:000000000000000000000000000000000013000000000000
#01314:00000013
#01319:000000000013
#01313:0000000000000013
#0141b:0000001313000000
#01412:1300000000000013
#01618:000000000014000000000000000000000000130013000000
#0161a:241400
#01612:000000000000000014000000000000000013000000130000
#01615:000000000000131300000000
#0161b:000000000000000000000013000000130000000000000000
#01614:0014000000000000
#0171a:141400000000000000000000
#01712:141400000000000000000000
#01718:000000000000000000000000000000130000000014000000
#01715:000000000000000000000000000000000013000000000000
#01714:0000000000000014
#01812:0013001300230000
#0181b:23231313
#01815:0000130000000013
#01818:0000000000130000
#01810:41
#01915:000000000000130000000013000000000000000000000000
#01918:2300001313130013
#01912:000000000000000000000000000013000000000000130000
#02015:130000000000130000000000130000000000000000000013
#02018:000000000013000000000013000000000013000000000000
#0201a:000000000014
#0201b:13
#02012:000000000014
#02612:000013000000000000000000000000000013000000000000
#02618:000000130000000000000013000000130000000013000000
#02615:000000000013000000130000000013000000000000130000
#0261b:000000000000000013000000000000000000000000000013
#0261a:24
#02610:41
#02715:000013000013000000000000000013000013000000000000
#02718:000000000000000013000013000000000000000013000013
#02712:0000001300000013
#0271b:0013000000130000
#0321b:000000000000000000000000000013000000000000130000
#03215:0013000013130013
#03218:000000000000130000000013000000000000000000000000
#03212:0000001300000000
#0321a:24
#0391b:0013
#03914:0000000000140000
#03915:230000130013
#03918:000000000000000000130000000000000014000000130000
#03912:000000000000000000130000000000000000000000000024
#04015:0013000023000000
#04018:000000000013000000130000000000000000000000130000
#04012:00130013
#0401b:001300000000000000130000
#04115:000000000013000000000000000013000000000000000013
#04118:000000130000000000000000000000130000000014000000
#04114:00000014
#04112:13
#0411b:1313
#04215:000000000000000013000013000000000000000000130000
#04218:0000131313000000
#0151b:0000001313000000
#01512:1300000000000013
#03615:2300001313130013
#0361b:000000130000000000000013000000000000000000130000
#03612:000000000013000000000000000000000000000000000000
#03618:000000130000001300000000
#0371a:000000000000000000000000000000000000000000000014
#0371b:000000000013000000000013000000000000000000000000
#03715:000000000000130000000000130000000013000000000000
#03718:000000000000000013000000000000130000000000000000
#03712:0000001300000000
#03818:0000140000000013
#03812:00142400
#03814:0000001400000000
#0381a:0000001400000000
#04514:0000001400000000
#04518:000000000000000000000014000000000000000013000000
#0451a:000000001400002400000000
#04515:000000000000000000000000000000000013000000000000
#04512:0013000024000013
#0451b:13
#03518:000013000000000000000000130000230000000013000000
#03515:000000130000230000000013000000000000000000130000
#0351b:000000000013000000130000000000000000000000000013
#03512:230000000000001300130000
#0351f:21
#03510:0041
#03116:0014000014000014
#03112:1400001400001400
#0311a:0000240000240000
#0101b:130000000000000000000000000000000013000000000000
#01018:000000140000000013000000000000000000000013000000
#0101a:0014
#01012:130000000000001400000000
#01015:0000001300001313
#01014:000000000014000000000000000000000000000000000000
#0211b:001300001300000000000000
#02118:000000000013000000000000000000000000000000000000
#02115:0013001300000000
#02112:00130000
#03018:000000000013000000000000000000000000000000000000
#03015:00130000
#0301f:11
#03014:00000024
#04415:000000130000000000000000230000000013000000000000
#04412:0000130000000013
#04418:000000000013000000130000000000000000130000000000
#0441b:001300000000000000000000
#04410:41
#00115:000000160000000000160000000000160000000000160000001600160016001600160016001600160016001600160016
#00114:000000160000000000160000001600160016001600160016
#00116:160000160000161616161616
#00015:0016001600160016
#00014:00160016
#00016:1616
#00415:000013000000000000130000000000000013000000130000
#00418:000000130000000013000000000000130000000000000013
#00412:000000000013000000000000000013000000000000000000
#0041b:000000000000000000000013000000000000000013000000
#00515:000013000000000000130000000000000000000000000000
#00512:000000000013000000000000000000000000000000000000
#00518:000000130000000013000000000000000000000000000000
#0051b:000000000000000000000013000000000000000000000000
#00516:0000000000000023
#01118:0000130013000013
#01115:000000000000000013000000000013000000000000000013
#01112:140000000013000000000013000000000000000000000000
#0111b:0000001300000000
#0111a:0014000000000000
#01218:13
#01215:001300000000000000000000
#0121b:000000130000000000000000000000000000000000000013
#0121a:00130000
#01213:001300
#01219:0000001300000000
#01214:000000000013000000000000000000000000000000000000
#01212:000000000000000000000013000000000000000000000000
#01210:41
#02318:000000000000130000000013000000000000000000000000
#02315:2300001313130013
#0231b:000000000000000000000000000013000000000000130000
#02418:130000000000130000000000130000000000000000000013
#02415:000000000013000000000013000000000013000000000000
#02412:130000000014
#0241a:000000000014
#02512:001300001300000000000000
#02515:000000000013000000000000000000000000000000000000
#02518:000000130000000000130000000000000024000024000000
#0251b:00130000
#02514:0000000000242424
#0281b:000013000000000000000000000000000013000000000000
#02815:000000130000000000000013000000130000000013000000
#02818:000000000013000000130000000013000000000000130000
#02812:240000000000000013000000000000000000000000000013
#02918:000013000013000000000000000013000013000000130000
#02915:000000000000000013000013000000000000000013000000
#0291b:0000001300000000
#02912:0013000000130000
#04312:0013
#04318:230000000000000000000000130000140000000014000000
#04315:0000001300000000
#0431b:0000001300000000
#04314:000000000000000000000000000000000014000000000024
#04715:000013000000000000130000000000000013000000130000
#04718:000000130000000013000000000000130000000000000013
#04712:000000000013000000000000000013000000000000000000
#0471b:230000000000000000000013000000000000000013000000
#04815:000013000000000000130000000000000000000000000000
#04812:000000000013000000000000000013000000000000000000
#04818:000000130000000013000000000000000000000000000000
#0481b:000000000000000000000013000000000000000000230000
#04817:0000000000130000
#04814:000000000000000000000000000000000013000000000000
#04819:00000013
#04816:000000000013
#04918:000013000000000000130000000000000013000000130000
#04915:000000130000000013000000000000130000000000000013
#0491b:000000000013000000000000000013000000000000000000
#04912:230000000000000000000013000000000000000013000000
#05018:000013000000000000130000000000000000000000000000
#0501b:000000000013000000000000000013000000000000000000
#05015:000000130000000013000000000000000000000000000000
#05012:000000000000000000000013000000000000000000230000
#05016:000000000000000000000000000000130000000000000024
#05019:000000000000000000000000000000000013000000000000
#05014:00000013
#05017:000000000023
#0221b:0013001300230000
#02212:23231313
#02218:0000130000000013
#02215:0000000000130000
#04618:13
#0341a:0024
#03414:0000000000002424
#03418:000000000000000000000000000000000024000024000024
#03412:000000000000002400000000
#00952:000000000013
#00955:00000053
#04055:0013
#04555:000000000013000000000000000000000000000000000000
#04552:0053000000000000
#00858:000000000053
#0085b:000000000000000000000000000000000000000000000013
#01452:53
#0145b:0053
#01552:53
#0155b:0053
#01958:5300000000530000
#0195b:00000013
#0205b:53
#02055:5353
#02155:0000005300000000
#03054:00000014
#03255:0000000000530000
#03655:0000000000630000
#03652:00000013
#0375a:000000000000000000000000000000000000000000000054
#03755:000000000000000000000000000000000053000000000000
#03852:0054
#04155:000000000063000000000000000000000000000000000063
#04258:0063
#0265a:14
#0185b:13
#03552:13
#03955:13
#0165a:14
#00155:000000560000000000660000000000560000000000660000005600660056006600560066005600660056006600560066
#00154:000000260000000000260000002600260026002600260026
#00156:260000260000262626262626
#00055:0056006600560066
#00054:00260026
#00056:2626
#00556:0000000000000013
#00758:0000000000530000
#01155:000000000000006300000000
#02458:6363
#02452:63
#02355:6300000000630000
#02352:00000013
#02558:0000006300000000
#02958:0000000000000013
#02852:14
#04455:0013
#04358:13
#02252:13
#04652:00000013
#01255:000000000013
#000360:1656
#000350:0056005600560056
#000340:00560056
#001360:560000560000565656565656
#001350:000000560000000000560000000000560000000000560000005600560056005600560056005600560056005600560056
#001340:000000560000000000560000005600560056005600560056
#002360:26
#0033b0:000000000000000000000000000013330000000000000000
#003390:000000000000000000000000000000000033330000000000
#003370:000000000000000000000000000000000000000033230000
#005320:000000000000000000000000000013330000000000000000
#005340:000000000000000000000000000000000033330000000000
#005360:000000000000000000000000000000000000000033230000
#007380:0000000000130000
#0073b0:00000023
#008350:0000000013230000
#008380:000000000000000000133300
#0083b0:000000000000000000000000000000000000000000000023
#009350:00000013
#009320:000000000023
#011350:000000000000001300000000
#011320:00000023
#012380:0000000013230000
#012350:000000000000000000132300
#014320:13
#014360:00230000
#0143b0:0013
#014370:00000023
#015320:13
#015360:00230000
#0153b0:0013
#015370:00000023
#019380:13
#0193b0:0023000000000000
#019380:0000000000130000
#0193b0:00000023
#0203b0:13
#020380:0023000000000000
#020351:13
#020321:0023000000000000
#020351:0013
#020321:0000000000230000
#021351:0000001300000000
#021321:0000000000230000
#023351:13
#023321:0023000000000000
#023351:0000000000130000
#023321:00000023
#024321:13
#024351:0023000000000000
#024380:13
#0243b0:0023000000000000
#024380:0013
#0243b0:0000000000230000
#025380:0000001300000000
#0253b0:0023
#030350:13
#030320:002300000000000000000000
#030380:0000001300000000
#0303b0:000000000000000000000023000000000000000000000000
#030340:000000000000000000000000000000145454240000000000
#030350:000000000000000000000000000000000000000000000000000000000000005400540054000000000000000000000000
#032350:0000000000130000
#032320:00000023
#033380:13
#0333b0:0023000000000000
#033321:13
#033351:0023000000000000
#033351:00130000
#033321:0000002300000000
#0333b0:00130000
#033380:0000002300000000
#033380:0013
#0333b0:0000000000230000
#033321:0013
#033351:0000000000230000
#033351:00000013
#033321:0000000000000023
#0333b0:00000013
#033380:0000000000000023
#033360:000000000000000000000000000000000000000000000014
#034360:0000002400000000
#036350:0000000000130000
#036320:00000023
#037350:13
#037320:0023000000000000
#0373b1:13
#037381:0023000000000000
#037351:000000000000000000000000000000000013000000000000
#037321:000000000023
#0373a1:000000000000000000000000000000000000000000000014
#038361:0024000000000000
#038321:0014
#038361:00000024
#041351:000000000013000000000000000000000000000000000000
#041321:0000002300000000
#041351:000000000000000000000000000000000000000000000013
#042321:0023000000000000
#042381:0013
#0423b1:00000023
#045321:0013000000000000
#045351:000000000023000000000000000000000000000000000000
#046351:000013000000000033330000000000000000000000000000
#046321:000000000033330000000033000033000033230000000000
