This file was generated by Ched 2.7.0.0.
#TITLE ""
#ARTIST ""
#DESIGNER ""
#DIFFICULTY 0
#PLAYLEVEL
#SONGID ""
#WAVE ""
#WAVEOFFSET 0
#JACKET ""
#REQUEST "ticks_per_beat 480"
#00002: 4
#BPM01: 106
#00008: 01
#TIL00: ""
#HISPEED 00
#MEASUREHS 00
#0051b:1300000000000013
#00518:000012000000000000000014000012000000000000000000
#0051a:0014000000140000
#00514:000000000014000000000000000000000014000000000000
#00512:0000121400001200
#00516:000012000014
#0051c:0012
#00116:000000000000140000000000000000000000140000000000000000000000140000000000000000000000140000000000000014000000140000001400000014000000140000001400001400140014001400140014000000000000000000000000
#00117:140000000000140000000000140014001400141414000000
#00115:000000000000140000000000000000000000140000000000000014000000140000001400001400140014000000000000
#00016:0014001400140014
#00015:00140014
#00017:1414
#00717:000000000000000000000000000000000000000000120012
#00712:000000000000000000121200
#00718:000013130000000013130000000000230000000000000000
#0071b:130000000013130000000013130000000000000000000000
#0071c:00000012
#00715:0013
#0081c:120012000000000000000012000000000000000000000000
#00817:000000120012000000000000000000130000000013000000
#00812:000000120000000000001300
#00814:001200
#0081a:0000001200000000
#00818:000000000000001200000000000000000000000000000000
#00816:000000000012000000000000
#0091b:000013000000000000000000000000000013000000000000
#00916:000000140014000014000000000000000000000000000000
#00912:000000000000130000130000000013000000000000000000
#00914:000000000000000000000013000000000000000000000000
#00918:000000000014000000000000
#00915:00000013
#0101b:130000000000000000000000000013000000000000000013
#01012:000000140000000000140014000013000000000013000000
#0101a:000000000014000000000000000000000000000000000000
#01016:001400141414140000000000
#01015:000000000000000000000000000000000013000000001300
#01018:0000000000001313
#01115:000013130000000013130000000023000000000000000000
#01112:130000000013130000000013130000000000120000000000
#01117:000000000000000000000000000000000000000000120012
#0111c:000000000000000000121200
#01314:001300130013000000000000
#01318:000000120000000000000012000000000013000000130000
#01319:001300000013000000130000000000000000000000000000
#01312:140000001400001300000000
#01315:000000000000000000000000000000130000130000000013
#0131b:000000000013
#01316:001200000000
#0131a:000000000000001400000000000000000000000000000000
#01412:0000131300000013
#01415:00000013
#0141b:000000000013
#01418:130000000000000000000000000000000000000000000013
#01419:0000001300000000
#01417:0013
#01518:000000000013130000000000000000130000000000000013
#01512:000000000000000000000013130000000000000013000013
#0151b:000000000000000000000000000000000013000013000000
#01515:13
#01615:001300001300130000130000
#01618:000000130000000000000013000000130000000000130000
#01612:000000000013000000130000000013000000000013000000
#0161b:230000000013000013000000000000000013000000000013
#01716:140014000000000014240024000000000000000000000000
#01712:000000000013130000000000000000000000000000000000
#0171b:000000000013130000000000000000000000000000000000
#01815:000013000000000000000013000013000000000000000000
#01818:0013231300230000
#0181b:230000000013000013000000000000000000000000000000
#01812:230000000000230000000000130000230014000000000000
#01816:000000000000000000000000000000000000140000140014
#0181a:000000000014
#01810:41
#01918:000000130013000000130000000000001300000000000000
#01915:000000130000130013000000
#01912:241300
#0191b:000000000000000000000013000000000000000000000013
#01919:000000000000000000000000000013130000000000000000
#01914:000000000000000000000000000013130000000000000000
#01916:0000000000000014
#0191a:24
#02012:000000000013000000000013130000000000000000000000
#0201b:000000000000000000000013130000000000000000000013
#02018:000000000000000000000000000000130000000013000000
#02015:000000000000000000000000000000000013000000000000
#02016:0014001400000000
#0211b:000013130000000000000000000000000000000000000000
#02115:000000000013130000000000000000000000000000000000
#02118:000000000000000013130000000000000000000000000000
#02116:000000000000000000000000000014000014000000141400
#02112:000000000000000000000000140000000000000014000014
#0211a:000000000000000000000000000000000000141400000000
#0251a:000000000000000000000000240014000000000000240000
#02512:000013130000000000000000000000000000240000240000
#02518:000000000013130000000000000000000000000000000000
#02515:000000000000000013130000000000000000000000000000
#02516:000000000000000000000000000000240024000024000000
#0261a:14
#02616:000013000000130000000000000000000000120000130000
#0261b:000000000013000000130000000000000013000000000000
#02612:240000000000000013000000130012000000000000000013
#02617:000000000000000000000013000000130000000000000000
#0261c:000000000012
#02610:41
#02718:120000000000000000140014000000000000000000001300
#02712:000012000000120000000000000012000000120000000013
#02714:000000140014000000000000000000140014000000000000
#0271b:000000000013
#02715:0000000000000013
#0271c:000012120000
#02713:000012
#02912:000012120013
#02916:12
#0291c:001200120000001200120000
#02918:000000140014000000000000000000140014000000000000
#02914:000000000000000000140014000000000000000000000000
#0291b:000012
#03216:000000140014000000000000000000000000000000130000
#03212:230000000000130000000013000000000000130000000000
#03215:000000000000000000130000130013000000000000000000
#0321b:2300131300000013
#03218:0000000000130000
#03312:000000000013000000000000000000150000120000150000
#03317:000000000013000000000000000012000000000012000000
#03316:000000000000000000000014000000000000000000000014
#03314:000000000000000000000000120000000018000000000000
#0331a:0012
#03319:0000000000150015
#0331c:00000012
#03416:000012000012000012000000000000000014000000000000
#03418:0012121200000000
#03415:000000000016
#03414:12
#0341a:12
#03412:000000000000000000000000230023000000230000230000
#0341b:000000000000000000000000230023000000230000230000
#03616:000000000014140000000000000000000000000000000014
#03612:230000140000000014140000130000000000000000130000
#03617:000000000000000000000013000000000000130000000000
#0361b:230000000000000000000000000013130000000000130000
#0361a:0014000000000000
#03712:230000000013000000000000000000000000000000000000
#03716:000000000000130000000000000000130000000000000013
#03713:001300
#03717:0000001300000000
#03714:000000000000000000000013000000000000000000000000
#0371b:230000000000000000001300000000130000000000000013
#0371a:000000000000001300000000000000000000000000000000
#03718:0023
#03812:000014140000000000000000000023000013000000000013
#03816:000000000014140000000014140000000000000000000000
#0381a:000000000000000014140000000000000000000000000000
#03818:000000000000000000000000000000000000001300230000
#03815:000000000000000000001313
#0381b:000000000000002300230000
#03915:000000000000130013000000130000000013000000130000
#03918:000000130013000000000000000000130000000013000000
#0391b:230000000000130000130013000013000000130000000013
#03912:001300000000000000130000
#04015:000013000013000000130000000000000000000000000000
#04012:1300130023001413
#04018:130000130000000013000013000000000000000000000000
#0401a:00000014
#04016:000000000013
#0401b:000000000000130000000000230000000000000000000013
#04117:13000013
#04112:000000000013000000000000130000000000130000001300
#04118:0000001300000000
#0411b:000000130013000000000000130000130000000013000000
#04116:000000000000001300001300
#04115:001300
#04215:001300130000001313001300
#0421b:000000130000000000000000130000000000001300000013
#04218:000000000013000013000013000000130013000000130000
#04212:000000000000000000130000130000000000130000001300
#04518:000000000000000013000000000000000012000000120000
#04516:130000000000000000000014000000000000000012000000
#04515:0000001300000000
#04512:000000130013000000000000240024000000000000000000
#0451b:000000000013000000000000000000000000000000000000
#0451a:000000000000242400000000
#0461a:120000000000000000000000000012000012000000000000
#04614:000012000012000000000000000012000012000000000000
#0461c:00120022
#04618:001200
#04616:0000001200000000
#04612:000000000000000000000012000000000000220000000000
#04714:000014000000000000140014000000000000000000120000
#04718:000000140014000014000000000000000000000000000012
#04716:000000000000000000000000000014000012000014000000
#0471a:2400000024120000
#04712:24240014
#04816:0012001200000022
#04818:000000000000120000000014000000130000000014000000
#0481a:140000000014000000000000000000000000000000000000
#04812:001400001400001600000000
#0481c:0000000012000022
#04814:000012
#0481b:000000000000000000000000000000000013000000000000
#04817:00000012
#00218:000013000000000000130000000000000012000000000000
#00215:000000130000000013000000000000000000000000000000
#00212:240000000013000000000000130000000000000013000000
#0021b:000000000000130000000013000013000000130000000000
#00216:000000000000000000000000000000140000000000140012
#0021a:24
#00312:1314
#00316:000014000000000014000012000014000000000000000000
#00314:0012000000120000
#00318:000000000012000000000000000000000012000000130000
#0031a:0000141200001400
#00315:000000000013
#03115:130013000000000000000000000000000000000000000013
#03112:000000130013000000130013000000000000000000130000
#0311b:000000231300131300131300
#03118:000000000000000000000000000000230013000000000000
#00415:000013000000000000130000000000000000000000000000
#00418:000000130000000013000000000000000000000000000012
#0041b:000000000013000000000000130000000000000013000000
#00412:240000000000130000000013000013000000130000000000
#00416:000000000000000000000000000000140012000000140000
#0041a:24
#01212:120012000000000000000012000000000000130000000000
#01217:000000120012000000000000000000000013130000000000
#0121c:00120000
#0121a:000000000000000012000000000000000000000000000014
#01214:0000001200000000
#01216:000000000000001200000000000000130000000000000000
#01218:000000000012000000000000
#01210:41
#03012:000013000000130000000013000000000000000000000000
#0301b:0000001300000000
#03017:000000000000000000000013000000000000000000000000
#03016:000000000000000000130000000000120012000000000000
#03018:000000000000000012220000
#0301f:11
#03515:231300000000131300000000
#0351b:000000000000230013000000000000230000000000000000
#03518:000000000000000000131300
#03512:0000230000230000
#0351f:21
#03510:0041
#0441a:00000014
#0441b:1300130023000013
#04412:000000000000130000000000230000000000140000000013
#04417:000000000013
#04416:000000000000000000000000000000000014000000000000
#04418:000013000013000000130000000000000000000000000000
#04415:130000130000000013000013000000000000000000000000
#04410:41
#0061b:000000130000000000000000000000000000000013000000
#00615:000000000000000000000000000013001300130000130000
#00618:000000000000000000000000000000130013000000001300
#00612:130000000014000014000000000000000000000000000013
#0061a:0014
#00616:000000140000140000140014000000000000000000000000
#00610:41
#02218:000013000000000000000013000013000000000000000000
#02215:0013231300230000
#02212:230000000013000013000000000000000000000014000000
#0221b:2300230013230000
#02216:000000000000000000000000000000000000140000140014
#0221a:000000000000000000000000000000000014000000000000
#02315:000000130013000000130000000000001300000000000000
#02318:000000130000130013000000
#0231b:001300
#02312:240000000000000000000013000000000000000000000013
#02314:000000000000000000000000000013130000000000000000
#02319:000000000000000000000000000013130000000000000000
#02316:0000000000000014
#0231a:24
#0241b:000000000013000000000013130000000000000000000000
#02412:000000000000000000000013130000000000000000000013
#02415:000000000000000000000000000000130000000013000000
#02416:0014001400000000
#02418:000000000000000000000000000000000013000000000000
#02817:000013000000130000000000000000000000000000130000
#02812:140000000013000000130000000000000013000012000000
#0281b:000000000000000013000000130000000000000000000013
#02816:000000000000000000000013000000130000000000000000
#0281c:000000000000001200000000
#02818:00000012
#0281a:24
#04918:000014000000000000140014000000000012000000000000
#04914:000000140014000014000000000000120000000000000000
#04916:000000000000000000000000000014000000000014000012
#0491a:2400240000001412
#04912:2424
#05018:000000120000000000120000000016000000000000000000
#05016:00120000
#05012:140000000014000000000000120000000013000000000000
#0501a:001400001400000012000000
#05014:000000000000000000000014000000000000000000000000
#05015:0000000000130000
#05017:000000000000000000000000000000000000120022220022
#04318:000000000000130013000000130000000013000000130000
#04315:000000130013000000000000000000130000000013000000
#04312:230000000000130000130013000013000000130000000013
#0431b:001300000000000000130000
#0055b:1300000000000023
#00552:00120012
#0055c:0012
#00155:000000000000240000000000000000000000240000000000000024000000240000002400002400240024000000000000
#00157:240000000000240000000000240024002400242424000000
#00156:000000000000540000000000000000000000640000000000000000000000540000000000000000000000640000000000000054000000640000005400000064000000540000006400005400640054006400540064000000000000000000000000
#00056:0054006400540064
#00055:00240024
#00057:2424
#00856:000000000000000000000000000000000000000000000013
#0085b:000000000000000000000000000000000000000000000013
#00857:000000000053
#00852:000000000053
#00952:000000000013
#00958:000000000013
#0095b:000000000000000000000000000000000053000000000000
#00955:00000053
#02656:00000012
#02652:14
#02758:12
#02752:00120012
#0275c:0012
#02952:000000120023
#02956:12
#0295c:00120012
#0325b:13
#03252:13
#03258:0000000000530000
#03752:13
#0375b:130000000000000000000000000000000000000000000013
#0405b:0013
#04752:00000014
#04858:00120000
#0485a:14
#0485c:0012
#04857:00000012
#00252:0013
#0025b:00130013
#00355:000000000013
#00358:0000000000000013
#00352:1314
#0035a:00140014
#01852:1300130000130000
#01858:0000130000130000
#0185b:13
#01952:14000013
#0195a:14
#01954:0000000000230000
#01955:000063
#01958:000063
#01959:0000000000230000
#0195b:00000013
#04155:001300
#04158:0000001300000000
#04157:53
#0045b:0013
#00452:00130013
#01056:0014
#0105b:000000000000001300000000
#01052:000000000000001300000000
#01155:000000000000001300000000
#01252:00000063
#01256:000000000013
#0125b:000000000013
#01257:00000063
#01458:53
#03058:00000012
#03856:0014
#04556:63
#04555:0000001300000000
#04558:001300
#0455b:000000000013000000000000000000000000000000000000
#04552:000000000013000000000000000000000000000000000000
#00758:0000000000130000
#00755:0053
#01555:53
#01558:00530000
#0215b:0053000000000000
#02155:00530000
#02158:0000005300000000
#02359:0000000000230000
#02358:000053
#02355:000053
#02354:0000000000230000
#0235a:14
#02352:14000013
#0235b:00000013
#02552:0063000000000000
#02558:00630000
#02555:0000006300000000
#02255:0000130000130000
#0225b:1300130000130000
#02252:13
#02858:00000012
#0285a:14
#0495a:00000014
#05056:00120000
#05052:1412
#05057:00000012
#0165b:13
#03555:13
#0395b:13
#04452:0013
#04352:13
#000370:1454
#000360:0054005400540054
#000350:00540054
#001370:540000000000540000000000540054005400545454240000
#001360:000000000000540000000000000000000000540000000000000000000000540000000000000000000000540000000000000054000000540000005400000054000000540000005400005400540054005400540054000000000000000000000000
#001350:000000000000540000000000000000000000540000000000000054000000540000005400005400540054000000000000
#0053b0:0000000000000013
#006360:23
#007350:13
#007320:002300000000000000000000
#007320:0013000000000000
#007350:000000000023000000000000000000000000000000000000
#007350:00130000
#007320:002300
#007320:0000001300000000
#007350:000000000000000000000023000000000000000000000000
#007350:0013
#007320:0000000000230000
#008370:0013
#008320:0000000000230000
#0083b0:000000000000000000000000000000000000130000000023
#008370:000000000033
#008361:000000000000000000000000000000000000130000000023
#008321:000000000033
#0093a1:0014
#009361:000000000000002400000000
#0093b1:000000000000000000000000000000000013000000000000
#009381:000000000023
#009350:00000013
#009320:000000000023
#011380:13
#0113b0:002300000000000000000000
#0113b0:0013000000000000
#011380:000000000023000000000000000000000000000000000000
#011380:00130000
#0113b0:002300
#0113b0:0000001300000000
#011380:000000000000000000000023000000000000000000000000
#011380:0013
#0113b0:000000000000002300000000
#012360:0013
#0123b0:0000000000230000
#012320:00000013
#012360:000000000023
#012371:00000013
#0123b1:000000000023
#014381:13
#0143b1:00230000
#014321:0013
#014351:0000000000230000
#014380:0000000000130000
#0143b0:00000023
#015350:13
#015320:00230000
#015381:00130000
#0153b1:0023
#015351:0000000000130000
#015321:000000000000000000000000000000000023000000000000
#017361:000000000000000000000014000000000000240000000000
#019341:0000000000130000
#019351:000053
#019321:00000023
#019390:0000000000130000
#019380:000053
#0193b0:00000023
#020360:14
#020320:0024000000000000
#020360:00140000
#0203a0:0000002400000000
#020320:000000000000000000132300
#020350:000000000000000000000000000000000000000000130023
#021380:132300000000000000000000
#0213b0:0013000000000000
#021380:000000000023000000000000000000000000000000000000
#021350:00130000
#021320:002300
#021380:0000001300000000
#0213b0:0023
#023390:0000000000130000
#023380:000053
#0233b0:00000023
#023341:0000000000130000
#023351:000053
#023321:00000023
#024361:14
#0243a1:0024000000000000
#024361:00140000
#024321:0000002400000000
#0243b1:000000000000000000132300
#024381:000000000000000000000000000000000000000000130023
#025351:132300000000000000000000
#025321:0013000000000000
#025351:000000000023000000000000000000000000000000000000
#025381:00130000
#0253b1:002300
#025351:0000001300000000
#025321:0023
#026361:000000130023000000000000000000000000000000000000
#0263b1:000000132300000000000000
#026321:000000000000000000130023000000000000000000000000
#026371:000000000000132300000000
#028371:000000130023000000000000000000000000000000000000
#028321:000000132300000000000000
#0283b1:000000000000000000130023000000000000000000000000
#028361:000000000000132300000000
#029321:000000000013
#030371:23
#0303b0:13
#030370:002300000000000000000000
#0303b0:000000000013000000000000000000000000000000000000
#030370:00230000
#0313b0:132300000000000000000000
#031380:000000130023000000000000000000000000000000000000
#031350:000000132300000000000000
#031380:000000000000000000130023000000000000000000000000
#031350:000000000000132300000000
#031320:000000000000000000000000000000130023000000000000
#031350:000000000000000000132300
#031380:000000000000000000000000000000000000000000130023
#032380:0000000000130000
#0323b0:00000023
#0333b0:13
#033370:0023000000000000
#033361:13
#033321:0023000000000000
#033371:00130000
#0333b1:0000002300000000
#033320:00130000
#033360:0000002300000000
#0353b0:132300000000000000000000
#035320:000000130023000000000000000000000000000000000000
#035381:000000130023000000000000000000000000000000000000
#035321:000000132300000000000000
#035321:000000000000000000130023000000000000000000000000
#035380:000000000000000000130023000000000000000000000000
#0353b0:000000000000132300000000
#0353b0:000000000000000000000000000000130023000000000000
#035321:000000000000000000000000000000130023000000000000
#035351:000000000000000000132300
#035321:000000000000000000000000000000000000000000130023
#0353b0:000000000000000000000000000000000000000000130023
#036360:0000000000130000
#036320:00000023
#0373b0:000000000000000000000000000000000013000000000000
#037370:000000000023
#037361:000000000000000000000000000000000013000000000000
#037321:000000000023
#041371:13
#041321:0023000000000000
#041371:000000000000000000000000000000000000000000000013
#0423b1:002300000000000000000000
#045361:13
#0453b1:0023000000000000
#047341:000000140024000000000000000000000000000000000000
#047381:000000000000000000140024000000000000000000000000
#049381:000000140024000000000000000000000000000000000000
#049341:000000000000000000140024000000000000000000000000
