This file was generated by Ched 2.7.0.0.
#TITLE ""
#ARTIST ""
#DESIGNER ""
#DIFFICULTY 0
#PLAYLEVEL
#SONGID ""
#WAVE ""
#WAVEOFFSET 0
#JACKET ""
#REQUEST "ticks_per_beat 480"
#00002: 4
#BPM01: 106
#00008: 01
#TIL00: ""
#HISPEED 00
#MEASUREHS 00
#00912:14
#00918:00140000
#0081a:14
#00814:00140000
#01613:1414
#01619:1414
#0021a:1414
#00214:00140014
#00412:1414
#00418:00140014
#0121a:14001414
#01214:00140000
#01210:41
#01812:00160000
#01818:26001414
#01814:0000000000140000
#01810:41
#00618:14
#0061a:0014
#00610:41
#00712:0014
#01419:1414
#0141a:00140000
#01418:00000014
#01519:14
#0151a:00140000
#01018:14
#01114:14
#01912:14
#01916:00140000
#0191a:0014
#02014:14
#02013:00340000
#02118:14
#02119:00340000
#0261a:14
#02614:00140000
#02610:41
#02714:0014
#02712:14
#02718:00140000
#0271a:00000014
#02812:14
#02818:00140000
#0291a:14
#02918:0014
#02914:00140000
#02912:00000014
#01312:14001414
#01318:00140000
#03319:14141414
#0331a:0014000000140000
#03318:0000001400000014
#0411a:14
#04118:0014
#04112:00140000
#04114:00000014
#04512:14
#0451a:00140000
#04513:0024
#04519:0024
#02218:0000160000140000
#02214:00001414
#02212:26
#0231a:14
#02316:00140000
#02312:0014
#0471a:1414
#04714:00140014
#04912:1414
#04918:00140014
#03512:00160000
#03518:26001414
#03514:0000000000140000
#0351f:21
#03510:0041
#0361a:0014
#03612:14
#03616:00140000
#02418:14
#02419:00340000
#02514:14
#02513:00340000
#0381a:14
#03818:00140000
#03712:14
#03714:00140000
#04014:14141400
#04018:0014001400000000
#04418:14141400
#04414:0014001400000000
#04410:41
#03912:14
#0391a:0014
#0431a:14
#04312:0014
#0421a:14
#04212:00140000
#04219:0014
#04213:0014
#0301f:11
#01713:24
#01719:24
#03418:0026
#03412:00000026
#04612:00000026
#00514:0034
#00513:00340000
#00319:00340000
#00318:0034
#00658:54
#0065a:0024
#01459:5464
#0145a:00240000
#01458:00000024
#01559:54
#0155a:00240000
#01753:14
#01759:14
#01058:54
#01154:64
#02054:64
#02052:0014
#02158:54
#0215a:0014
#0305a:00000014
#03359:54645464
#0335a:0024000000240000
#03358:0000002400000024
#03452:00000016
#03458:0016
#03558:16
#02458:54
#0245a:0014
#02554:64
#02552:0014
#0385a:6414
#03858:00240000
#03752:5414
#03754:00240000
#03952:54
#0395a:0054
#0435a:64
#04352:0064
#04652:00000016
#000350:16
#001330:0000002a
#0033a0:14
#003390:00340000
#003380:00003424
#005320:14
#005330:00340000
#005340:00003424
#006380:14
#0063a0:0054
#007380:24
#0083a0:00001424
#009320:00001424
#010380:14
#0103a0:0024
#011340:14
#011320:0024
#014390:1434
#0143a0:00540000
#014380:00000054
#015390:3424
#0153a0:00540000
#020340:14
#020330:00340000
#020320:0024
#021380:14
#021390:00340000
#0213a0:0024
#024380:14
#024390:00340000
#0243a0:0024
#025340:14
#025330:00340000
#025320:0024
#0263a0:00001424
#028320:00001424
#0303a0:14000024
#031340:14000034
#031320:00345400
#032340:54000024
#032320:00345400
#033390:14343434
#0333a0:0034000000340000
#033380:0000003400000034
#034390:24
#037320:1424
#037340:00340000
#0383a0:1424
#038380:00340000
#039320:14
#039340:00240000
#0393a0:0014
#039380:00000024
#0433a0:14
#043380:00240000
#043320:0014
#043340:00000024
#046320:16000026
#0483a0:1434
#048380:00340024
#050320:1434
#050340:0000340000003424
