This file was generated by Ched 2.6.4.0.
#TITLE ""
#ARTIST ""
#DESIGNER ""
#DIFFICULTY 0
#PLAYLEVEL
#SONGID ""
#WAVE ""
#WAVEOFFSET 0
#JACKET ""
#REQUEST "ticks_per_beat 480"
#00002: 4
#BPM01: 182
#00008: 01
#TIL00: ""
#HISPEED 00
#MEASUREHS 00
#0021a:14
#0011a:14
#00412:14
#01418:14
#03912:1616
#04118:1616
#04110:41
#00312:14
#00518:14
#00618:14
#00714:14
#00814:14
#01312:14
#0171a:14
#01710:41
#01814:14
#01918:14
#02018:14
#04212:1616
#03718:1616
#0091a:14
#00910:41
#01014:14
#02112:14
#0221a:14
#02314:14
#02414:14
#02912:0016
#02918:26
#02910:41
#03018:16
#03012:0016
#03118:1616
#03312:16
#03318:0016
#03412:16
#03418:0016
#03512:1616
#04318:16
#04312:0016
#04418:16
#04412:0016
#0451a:14
#0451f:11
#04614:14
#04718:14
#04812:14
#04918:14
#05014:14
#0511a:14
#05512:1616
#05618:16
#05612:0016
#05918:1616
#06012:16
#06018:0016
#06618:1616
#06712:1616
#06818:16
#06812:0016
#06418:0016
#06412:16
#06218:16
#06212:0016
#06210:41
#05718:1616
#06112:1616
#05418:26
#0541f:21
#05410:0041
#0113a0:14
#0123a0:24
#015320:14
#016320:24
#025390:14
#026390:24
#027330:14
#028330:24
#032380:1626
#036320:1626
#038380:1626
#040320:1626
#052320:14
#053320:24
#054380:1626
#058320:1626
#063380:1626
#065320:1626
#069380:1626
#070320:16362600
