This file was generated by Ched 2.7.0.0.
#TITLE ""
#ARTIST ""
#DESIGNER ""
#DIFFICULTY 0
#PLAYLEVEL
#SONGID ""
#WAVE ""
#WAVEOFFSET 0
#JACKET ""
#REQUEST "ticks_per_beat 480"
#00002: 4
#BPM01: 182
#00008: 01
#TIL00: ""
#VOLUME: ""
#HISPEED 00
#MEASUREHS 00
#02517:0000001300130000
#02516:0013000000000013
#02512:0013
#0251b:23
#02616:13
#02617:00130000
#02612:00130000
#02712:0013000013000000
#02718:0000130000000013
#02715:0000001300001300
#0271b:0000000013130000
#0281b:1300000000000013
#02812:1300000000000013
#02815:0012001200000000
#02819:0012001200000000
#03112:0013000000000013
#0311b:0000130000131300
#03115:0000001300000000
#03116:00000013
#03118:00000000000000130000000000000000
#0351b:0013130013000000
#03515:0000131300000000
#03512:0000000013001313
#03518:0000000000131300
#04312:00130013
#0431b:0013
#04419:0013000000120000
#04414:0000001300000000
#0441b:13001312
#04412:00130000
#04417:00130000
#04416:0013
#04418:0000000000000012
#04517:2313
#0451b:00000000130000000000001300000000
#04512:0013000000000000
#04516:0000001300000000
#0451f:11
#04612:0013000000000000
#04617:00130000
#04614:0000001300000000
#04619:0013
#04616:0000000000130000
#0461b:00000013
#04615:00000000000000000000000000130000
#04618:0000000000000013
#04712:13000000130000000000001300000000
#0471b:1300000000000013
#04716:00000000000000130000000000000000
#04715:0013000000000013
#04718:00000013000000000000000000000000
#04717:0000000000131300
#04817:0013000000000000
#04812:00000000130000001200001300001500
#0481b:0000001300000000
#04818:00000000000000001200001300001500
#04916:0014000000000000
#0491a:00000014000000001400000000000000
#04912:0000140000000012
#04919:000000000000000000000000000000000000000000000000000000000000000000000013000000000000000000000000
#04914:000000000000000000000000000000000000000000000000000000000000000000000013000000000000000000000000
#04917:0000000000000012
#0501b:0013000000000000
#05015:0013130000000000
#05018:0000001313000000
#05016:0000000000000013
#05115:0013001300001300
#05118:0000130000130013
#0511b:1313
#05112:1313
#0521b:13
#05217:00000000000013000000001300000000
#05212:0000131300000000
#05215:13
#00016:00000014
#00112:1300000000130000
#0011b:0000001300001300
#00116:0000000000000013
#0021b:1300000000130000
#00212:0000001300001300
#00217:0000000000000013
#00312:1300000000130013
#0031b:0000001300000000
#00317:00000013
#0041b:1300000000130013
#00412:0000001300000000
#00416:00000013
#00516:1300000000130000
#00517:0000001300000000
#0051b:23000013
#00512:0000000000000013
#00617:1300000000130000
#00616:0000001300000000
#00612:13000013
#0061b:0000000000000013
#00716:13
#00717:0000001300001300
#00712:0000000000130013
#0071b:13
#00817:13
#00816:0000001300001300
#0081b:0000000000130013
#00812:13
#00919:0013000000000000
#00913:00130000
#00912:0000000000130000
#0091b:00000013
#00915:2300000000000013
#00910:41
#01012:0000001300000013
#0101b:1313000000000000
#0111b:13
#01118:0013000000001300
#01115:1300130000000013
#01112:0000000000130000
#01217:13
#01212:1300000000000013
#0121b:0000001300000000
#01216:0000001300000000
#01218:0013000000000000
#01215:00130000
#01314:0013000000000000
#0131a:00130000
#0131b:0000000000130000
#01312:00000013
#01318:1300000000000013
#0141b:0000001300000000
#01412:1313000000000000
#01415:0000000000000013
#01512:1300000013000013
#0151b:00130000
#01518:13
#01517:00000013
#01617:0000000000000013
#01613:0000000000142400
#01619:0000000000241400
#0161b:1313000000000000
#01616:1313000000000000
#01719:0013000000000000
#01714:00130000
#01715:0000000000130000
#01718:00000013
#01712:2300000000000013
#01710:41
#0181b:1313000000000013
#01816:1313000000000000
#01817:0000001300000000
#02016:1300000000000013
#0201b:13
#02012:0000001300000000
#02017:0000001300000000
#02015:0013000000000000
#02018:00130000
#02114:0013000000000000
#02119:00130000
#02118:0000000000130000
#02115:00000013
#0211b:1300000000000013
#02212:1313000000000000
#02217:1313000000000000
#02216:0000001300000000
#02218:0000000000000013
#01912:13
#01915:0013000000001300
#01918:1300130000000013
#0191b:0000000000130000
#02316:00000013
#0231b:1300000013000013
#02312:00130000
#02315:13
#02412:1313000000001300
#02417:1313000000000000
#02415:0000000000130000
#02418:00000000000000000000001300000000
#03216:1300001300000000
#03212:00000013000000000000000000001300
#0321b:0000000000000013
#05317:12
#0531b:0000000000000013
#05312:0000000000000013
#05616:0013000000001300
#0561b:0000130000131300
#05612:0000001300000013
#05617:00000000000000130000000000000000
#05716:1300001300000000
#0571b:0000001300000000
#05714:0000000000000013
#05719:0000000000000013
#06818:00130013
#06815:0013
#06914:0013000000140014
#06912:00130000
#06919:0000001300000000
#06916:1313
#06917:00130000
#0691b:0013
#06918:00000014
#03612:13
#03616:0000001313000000
#03617:13
#0361b:00000000000033330000000000001300
#03613:00000000000000000000000033330000
#03614:00000000000000000000333300000000
#03615:00000000000000000033000000000000
#0361a:00000000333300000000000000000000
#03619:00003333000000000000000000000000
#03618:00330000000000000000000000000000
#0701b:13131300
#07018:0013000000000000
#07015:0000001300000000
#07012:13131300
#03718:13
#03717:0000001300000013
#03719:0013
#03712:0000001300000013
#03714:0013
#03715:0023000000000000
#0371b:0000000000230000
#03716:0000000000230000
#02912:2400000014000014
#0291a:00000000240000000000001400001400
#02916:24000000000000000000001400000000
#02910:41
#03014:0013000000000000
#0301b:00000000130000000000001300000000
#03019:0000001300000000
#03017:0000000013000013
#03016:00130000
#03419:0013000000000000
#03412:00000000130000000000001300000000
#03414:0000001300000000
#03416:0000000013000013
#03417:00130000
#0331a:2400000014000014
#03312:00000000240000000000001400001400
#03316:24000000000000000000001400000000
#0411a:24000000000000000000001400000000
#04116:2400240024000014
#04112:00000000000000000000001400001400
#04110:41
#04214:0013000000000000
#04212:00130000
#04219:0000001300000000
#04216:0013
#04217:0000130000000013
#0541a:0000000014000014
#05412:00000000000000000000001400000000
#05415:0000000014000014
#05417:00000000000000000000001400000000
#05416:24
#0541f:21
#05410:0041
#05512:0013000000000013
#0551b:00131300
#05516:0000131300000000
#0581a:2400240000000014
#05817:00000000000000000000001400000000
#05815:0000000000000014
#05816:0014001424000000
#05812:24000000000000000000001400000000
#0591b:0013000000000013
#05912:00131300
#05917:0000131300000000
#06712:0013000000000013
#0671b:00131300
#06716:0000131300000000
#06612:2400240000000014
#06615:00000000000000000000001400000000
#06617:0000000000000014
#06616:0014001424000000
#0661a:24000000000000000000001400000000
#06219:0013
#0621b:0000001300000013
#06214:0013
#06216:0000001300000013
#06215:13
#06217:0000000000230000
#06212:0000000000230000
#06218:0023000000000000
#06210:41
#06112:00000000000033330000000000001300
#0611b:13
#06117:0000001313000000
#06116:13
#0611a:00000000000000000000000033330000
#06119:00000000000000000000333300000000
#06118:00000000000000000033000000000000
#06113:00000000333300000000000000000000
#06114:00003333000000000000000000000000
#06115:00330000000000000000000000000000
#0601b:0000000013001313
#06012:0013130013000000
#06018:0000131300000000
#06015:0000000000131300
#04018:0000000013000013
#04016:00000000000000000000001300000000
#04012:0013
#04017:00000013000000000000000000000000
#04015:1300001300000000
#0401b:13
#03918:0000000000000013
#03912:0013000000000013
#0391b:00000013
#03916:0000000000130000
#03919:0013
#03914:0000001300000000
#03917:00130000
#06515:0000000013000013
#06517:00000000000000000000001300000000
#0651b:0013
#06516:00000013000000000000000000000000
#06518:1300001300000000
#06512:13
#06415:0000000000000013
#0641b:0013000000000013
#06412:00000013
#06417:0000000000130000
#06414:0013
#06419:0000001300000000
#06416:00130000
#06317:0000000000000013
#06312:0013000000130013
#0631b:0000130000130000
#06315:0000001300000000
#06318:0013
#03816:0000000000000013
#0381b:0013000000130013
#03812:0000130000130000
#03818:0000001300000000
#03815:0013
#02556:0053000000000000
#02557:0000000000630000
#02656:53
#02657:00530000
#02652:00230000
#00352:53
#0045b:63
#00556:53
#00657:63
#00756:53
#00857:63
#01052:0000001300000000
#0105b:0053000000000000
#0125b:0000001300000000
#0145b:0000001300000000
#01452:0063000000000000
#01552:53
#0155b:00530000
#01852:0000003300000000
#01856:0023000000000000
#02257:0023000000000000
#0225b:0000004300000000
#0245b:0000004300000000
#02452:0023000000000000
#02457:0023000000000000
#03256:0000005300000000
#04752:00630000
#04756:00000000000000230000000000000000
#04952:00540000
#05252:0000005300000000
#05257:00000000000000000000002300000000
#0525b:23
#05357:12
#0025b:63
#00152:53
#05756:0000005300000000
#0695b:1313
#06952:00130000
#03352:0000640000000034
#0335a:64
#03356:00000000440000003400004400000000
#03657:53
#03656:0063
#03755:0013000000000000
#0375b:0000000000130000
#03756:0000000000130000
#03752:0000000000000053
#0295a:0000540000000044
#02956:00000000000000004400003400000000
#02952:54
#0415a:00000000000000000000004400000000
#04152:0000000000000034
#04156:54543400
#05455:0000000034000034
#05457:00000000000000000000004400000000
#05857:00000000000000000000004400000000
#05855:0000000000000034
#05856:0024002434000000
#05852:54340000
#0585a:00640000
#06655:00000000000000000000003400000000
#06657:0000000000000044
#06656:0024002444000000
#0665a:64
#06652:00540000
#02052:0000001300000000
#0235b:63
#02352:00630000
#0165b:0023000000000000
#01656:0023000000000000
#01652:0000003300000000
#06257:0000000000130000
#06252:0000000000130000
#06258:0013000000000000
#0625b:0000000000000063
#06156:63
#06157:0053
#04056:00000000000000000000002300000000
#04052:0053
#04057:00000023000000000000000000000000
#0405b:63
#06557:00000000000000000000002300000000
#0655b:0063
#06556:00000023000000000000000000000000
#06552:53
#06352:0000000000000063
#0385b:0000000000000053
#04456:0053
#001320:13
#001360:0000002300000000
#0023b0:13
#002370:0000002300000000
#003320:13
#003360:0000002300000000
#0043b0:13
#004370:0000002300000000
#005360:13
#005320:0000002300000000
#006370:13
#0063b0:0000002300000000
#007360:13
#007320:0000002300000000
#008370:13
#0083b0:0000002300000000
#009370:0000001300230000
#0103b0:0013000000000000
#010370:0000002300000000
#0113b0:0000001300230000
#013360:0000001300230000
#014320:0013000000000000
#014360:0000002300000000
#015320:13
#015360:00230000
#0153b1:00130000
#015371:0023
#016361:0013000000000000
#016321:0000002300000000
#0163b0:0013000000000000
#016370:0000002300000000
#0173b0:0000001300230000
#018360:0013000000000000
#018320:0000002300000000
#019320:0000001300230000
#021320:0000001300230000
#022370:0013000000000000
#0223b0:0000002300000000
#0233b0:13
#023370:00230000
#023321:00130000
#023361:0023
#024371:0013000000000000
#0243b1:0000002300000000
#024320:0013000000000000
#024360:0000002300000000
#025360:0013000000000000
#025320:0000002300000000
#025370:0000000000130000
#0253b0:0000000000000023
#026360:1323
#026320:00530000
#026371:00130000
#0263b1:0023
#026381:0000000000000013
#027381:0023000000000000
#029321:14
#029361:00240000
#0293a0:00140000
#029360:0024
#030320:0000000013000023
#030360:00000000000000000000003300000000
#0323b0:1300002300000000
#032370:00000033000000000000000000000000
#032361:0000001300000000
#032321:00000023
#0333a1:14
#033361:00240000
#033320:00140000
#033360:0024
#0343b0:0000000013000023
#034370:00000000000000000000003300000000
#036370:13
#036380:00330000000000000000000000000000
#036390:00003333000000000000000000000000
#0363a0:00000000333300000000000000000000
#0363b0:00000000000033332300000000000000
#036361:0013
#036351:00000000000000000033000000000000
#036341:00000000000000000000333300000000
#036331:00000000000000000000000033330000
#036321:0000000000000023
#037321:0000000000000013
#038361:0023000000000000
#0383b1:0000000000000013
#039371:0023000000000000
#0403b1:1300002300000000
#040371:00000053000000000000000000000000
#040321:0000000013000023
#040361:00000000000000000000005300000000
#041361:14
#041321:00240000
#041360:00140000
#0413a0:0024
#0423b0:0013
#042380:00000000000000000000002300000000
#042351:00000000000000000000001300000000
#042321:0000000000000023
#043381:0013230000000000
#043351:0000001323000000
#043381:0000000000132300
#043351:0000000000000013
#044351:23
#044361:0013
#045321:23
#045321:0013
#045361:00000000000000000000003300002300
#0453b0:0000000000000013
#046370:0023000000000000
#047320:0000130000230000
#047360:00000000000000530000000000000000
#049320:00140000
#049360:0024
#050320:0013
#050360:00000023
#0503b1:0000000000001323
#0523b1:13
#052371:00230000
#052321:0000001300000000
#052371:00000000000000000000005300000000
#053321:23
#055321:0013
#055361:00000000000000000000002300000000
#0553b0:00000000000000000000001300000000
#055370:0000000000000023
#0573b0:13
#057370:00000023000000000000000000000000
#057321:00000013000000000000000023000000
#057361:0000003300000000
#058321:14240000
#058361:0054000000000000
#0583a0:00142400
#058360:0000005400000000
#0593b0:0013
#059370:00000000000000000000002300000000
#059321:00000000000000000000001300000000
#059361:0000000000000023
#061361:13
#061351:00330000000000000000000000000000
#061341:00003333000000000000000000000000
#061331:00000000333300000000000000000000
#061321:00000000000033332300000000000000
#061370:0013
#061380:00000000000000000033000000000000
#061390:00000000000000000000333300000000
#0613a0:00000000000000000000000033330000
#0613b0:0000000000000023
#0623b0:0000000000000013
#063370:0023000000000000
#063320:0000000000000013
#064360:0023000000000000
#065320:1300002300000000
#065360:00000053000000000000000000000000
#0653b0:0000000013000023
#065370:00000000000000000000005300000000
#0663a0:14240000
#066360:0054000000000000
#066321:00142400
#066361:0000005400000000
#067321:0013
#067361:00000000000000000000002300000000
#0673b0:00000000000000000000001300000000
#067370:0000000000000023
#068320:0013230000000000
#0683b0:0000001323000000
#068320:0000000000132300
#0683b0:0000000000000013
#0693b0:23
