This file was generated by Ched 2.7.0.0.
#TITLE ""
#ARTIST ""
#DESIGNER ""
#DIFFICULTY 0
#PLAYLEVEL
#SONGID ""
#WAVE ""
#WAVEOFFSET 0
#JACKET ""
#REQUEST "ticks_per_beat 480"
#00002: 4
#BPM01: 182
#00008: 01
#TIL00: ""
#VOLUME: ""
#HISPEED 00
#MEASUREHS 00
#02518:0000001300130000
#02512:0013
#02515:0013000000000013
#0251b:23
#02715:00130013
#0271b:0000001300000013
#02718:0013000000130000
#02712:0013
#0291a:00000000000000000000001400000000
#02912:2400000000000014
#02910:41
#0301b:0013000000000000
#03018:00000000000013000000001400000000
#03012:0000000014000014
#03015:00130000
#03118:0013000000130000
#03115:00130013
#0311b:0000001300000013
#03112:0013
#03518:0013001300130013
#03515:00131313
#03718:1300001300000000
#03715:0000000013000013
#03712:0023000000230000
#0371b:0000000000230000
#03818:0000130000000013
#03815:0000001300000000
#0381b:0013
#03812:0000000000130000
#03915:00131300
#03918:0000001300000013
#0391b:0000000000130000
#03912:00000013
#04512:00130000
#0451f:11
#0451b:23
#04615:0013000000130000
#04618:00130000
#04612:0000001300000000
#0461b:0013
#04619:00000000000000000000000000330000
#04715:0000130000000013
#04712:13
#04718:0013000000000000
#0471b:00000013
#04818:0013001300000016
#04815:00000000130000000000001600000000
#04812:0016
#04914:0014000000000000
#0491a:0000140000000014
#04912:000000000000000000000000000000000000000000000000000000000000000000000014000000000000000000000000
#05015:0013000000000000
#0501b:00130000
#05012:0000001300000000
#05112:0013000000130000
#05118:00130013
#05115:0000001300000013
#0511b:0013
#00017:00000012
#00115:0000000000130013
#00118:00000013
#00315:0000000000130000
#00318:00000013
#00312:0000000000000013
#00418:0000000000130000
#00415:00000013
#0041b:0000000000000013
#00512:0000000000130000
#0051b:00000013
#00515:0000000000000013
#00818:0000000000130000
#00812:00000013
#0081b:0000000000000013
#00918:0013000000000013
#00915:23130000
#00912:00000013
#00910:41
#01015:13
#01012:0000000000000013
#01018:0013000000000000
#0101b:0000001300000000
#01115:0013000000000000
#0111b:00130013
#01112:0000000000000013
#01118:13
#01218:13130000
#01215:0013001300000000
#01212:0000000000000013
#01518:00000013
#01515:0000000000000013
#0161b:13
#01612:0013000000002600
#01618:0000000000260013
#01418:1300000000000013
#01415:0013000000000000
#01412:0000001300000000
#01718:0013000000000013
#01712:00130000
#01715:23000013
#01710:41
#01812:13
#0181b:0000000000000013
#02812:13
#0281a:0000000000000014
#02816:0000001200000000
#02818:0012000000000000
#0321a:00000014000000000000000000000000
#03212:1400001400000014
#05216:0000001300000000
#05212:00000000000000000000001300000000
#03615:0000000000000013
#05515:0013001300000000
#05518:00131300
#05512:0013
#05513:00000000000000000000001300000000
#05514:0000000000000013
#05519:00000000000000000000001300000000
#0551a:0000000000000013
#05615:0013000000130000
#05618:00130013
#05612:0000001300000013
#0561b:0013
#05312:0000000000000014
#0571a:00000013000000000000000000001400
#0571b:13
#05715:13
#05714:00000013000000000000000000000000
#05713:0000001300000000
#05719:0000001300000000
#00218:0000000000130013
#00215:00000013
#0061b:0000000000130000
#00612:00000013
#00618:0000000000000013
#00715:0000000000130000
#0071b:00000013
#00712:0000000000000013
#01315:0013000000000013
#01318:13130000
#0131b:00000013
#01918:0013000000000000
#01912:00130013
#0191b:0000000000000013
#01915:13
#02018:0013001300000000
#02015:1300130000000013
#02115:0013000000000013
#0211b:00130000
#02118:13000013
#0221b:13
#02215:0000000000000013
#02315:00000013
#02318:0000000000000013
#02412:13
#0241b:0013000000000000
#02612:0000000000000013
#0261b:0000000000000013
#03312:00000000000000000000001400000000
#0331a:2400000000000014
#03412:0013000000000000
#03414:00000000000000000000001400000000
#03415:0000001300000000
#0341a:0000000014000014
#03418:00130000
#0411a:00000000000000000000001400000000
#04112:0000000000000014
#04116:24
#04110:41
#0401a:0000000000000014
#0401b:0013
#0581a:00000000000000000000001400000000
#05812:0000000000000014
#05816:24
#05918:0013001300000000
#05915:00131300
#0591b:0013
#0591a:00000000000000000000001300000000
#05919:0000000000000013
#05914:00000000000000000000001300000000
#05913:0000000000000013
#06015:0013001300130013
#06018:00131313
#06215:1300001300000000
#06218:0000000013000013
#0621b:0023000000230000
#06212:0000000000230000
#06210:41
#06315:0000130000000013
#06318:0000001300000000
#06312:0013
#0631b:0000000000130000
#06418:00131300
#06415:0000001300000013
#06412:0000000000130000
#0641b:00000013
#06118:0000000000000013
#05412:00000000000000000000001400000000
#0541a:0014
#05416:2400000000000014
#0541f:21
#05410:0041
#06512:0000000013000014
#06912:0013001300000000
#0691b:13131300
#06812:0013000000130000
#06818:00130013
#06815:0000001300000013
#0681b:0013
#07012:16161600
#07018:0016001600000000
#06612:00000000000000000000001400000000
#0661a:0000000000000014
#06616:24
#06715:00001300000013000000001300000000
#06718:0000130013000013
#06712:0000000013000013
#0671b:00000000000000000000001300000000
#0441b:0013001300000000
#04412:13131300
#0431b:0013000000130000
#04315:00130013
#04318:0000001300000013
#04312:0013
#04218:00001300000013000000001300000000
#04215:0000130013000013
#0421b:0000000013000013
#04212:00000000000000000000001300000000
#01255:0000001300000000
#01652:0053000000000000
#01656:0000001300000000
#03252:0000006400000000
#03755:0000000000000063
#03752:0013000000130000
#0375b:0000000000130000
#03858:0000000000000053
#04755:00530000
#0495a:00640000
#05256:0000006300000000
#05252:00000000000000000000002300000000
#01857:0000001300000000
#0105b:0000001300000000
#01452:0000001300000000
#02058:0000001300000000
#02256:0000001300000000
#0245b:0063000000000000
#02457:0000001300000000
#02952:0000000014000014
#0335a:0000000014000014
#04152:0000000000000014
#04156:0014
#06258:0000000000000053
#0625b:0013000000130000
#06252:0000000000130000
#06355:0000000000000063
#0545a:0014
#05456:0000000000000014
#05856:0014
#05852:0000000000000014
#06656:0014
#0665a:0000000000000014
#0695b:0063
#04452:0053
#001320:1300002300000000
#0023b0:1300002300000000
#003320:1300002300000000
#0043b0:1300002300000000
#005350:13
#005320:0000002300000000
#006380:13
#0063b0:0000002300000000
#007350:13
#007320:0000002300000000
#008380:13
#0083b0:0000002300000000
#0093b0:0000001300230000
#011350:0000001300230000
#013320:0000001300230000
#015320:1323
#015360:00330000
#016320:0013000000000000
#016360:0000002300000000
#0173b0:0000001300230000
#0183b0:0013000000000000
#018370:0000002300000000
#019380:0000001300230000
#021320:0000001300230000
#022320:0013000000000000
#022360:0000002300000000
#0233b0:1323
#023370:00330000
#0243b0:0013000000000000
#024370:0000002300000000
#0263b0:1323
#026321:00132300
#029321:1424
#029361:00340000
#032321:0000001400000000
#032361:0000000000240000
#0333a1:1424
#033361:00340000
#036321:13333333333323000000000000000000
#0363b1:00000000000000001333333323000000
#037351:0000000000000013
#038321:0023000000000000
#038381:0000000000000013
#0393b1:0023000000000000
#040351:1300002300000000
#041361:1424
#041321:00340000
#044321:0013
#044361:00000023
#045381:0000000013000023
#0453b1:00000000000000000000003300000000
#0463b1:00000013
#046391:00000000000000000000000000330000
#046381:0000000000000023
#047351:00130000
#047321:0000000000230000
#0493a1:00140000
#049361:0024
#050381:0000000013003323
#0523b1:13230000
#052361:0000001300000000
#052321:00000000000000000000005300000000
#053361:23
#058361:1424
#058321:00340000
#0613b1:13333333333323000000000000000000
#061321:00000000000000001333333323000000
#062381:0000000000000013
#0633b1:0023000000000000
#063351:0000000000000013
#064321:0023000000000000
#065381:1300002300000000
#066361:1424
#0663a1:00340000
#0693b1:0013
#069371:00000023
