This file was generated by Ched 2.7.0.0.
#TITLE ""
#ARTIST ""
#DESIGNER ""
#DIFFICULTY 0
#PLAYLEVEL
#SONGID ""
#WAVE ""
#WAVEOFFSET 0
#JACKET ""
#REQUEST "ticks_per_beat 480"
#00002: 4
#BPM01: 182
#00008: 01
#TIL00: ""
#VOLUME: ""
#HISPEED 00
#MEASUREHS 00
#0251b:0013000013000000
#02516:0013000013000000
#02517:2300000000130000
#02512:2300000000130000
#02717:0012001200120012
#02712:0000001300000013
#02719:0013
#0271b:0000000000130000
#02714:00130013
#02914:0000000016000016
#0291a:0000240000000014
#02912:24000000000000000000001400000000
#02916:24000000000000000000001600000000
#02917:0014000000000000
#02915:0000001400000000
#02910:41
#03019:0000001300000000
#03012:0013000013000000
#03017:0000000000000013
#03015:00000013000000000000000000000000
#0301b:00130000
#03117:0013000000130000
#0311b:00130013
#03116:0000001300000013
#03112:0013
#03118:00000000000000130000000000000013
#03115:00000013000000000000001300000000
#03719:13000000000000000013000000000000
#03712:0000001300000013
#03714:00130000000000001300000000000000
#03717:00002300000000130000000000001300
#03716:0000000000230000
#0371b:0000000000230000
#0381b:0013130013000013
#03812:0000130000130000
#03814:0000001300000000
#03816:0000000013000013
#03817:0000000000130000
#03916:0000131313000000
#0391b:0000000013131300
#03912:0013130000001313
#04017:13
#04012:13000000000013000000001300000000
#0401b:00000013000000001300000000001300
#04016:0013
#04312:0000130000130013
#04317:0000000013000013
#04316:0013000000001300
#0431b:0000001300000000
#04416:1414141414000000
#0441a:14001412
#0441c:0000000000120000
#04418:0000000000000012
#04412:00140000
#04516:2413000000000000
#04512:00130000
#04517:0000001300000000
#0451f:11
#0461b:00131313
#04615:00000000000013000000000000130000
#04618:0000000000130013
#04612:00131313
#04617:0013000000000000
#04714:13
#04715:00000000130000000000001300000000
#0471b:0013000000130013
#04719:13
#04712:00001300000000130000000013000000
#04716:0000000000000013
#04718:00000013000000000000000000000000
#04717:00000013
#04812:0013001300000000
#04817:00130000
#04813:000000000000001a
#04815:00000000000000000000001600000000
#04816:0014
#04918:0013000000000000
#04915:00000013000000001600000000000000
#0491b:00130000
#04912:00130000
#04917:0000001300000012
#04916:00000000000000000000000000000000000000000000000000000000000000000000000000000000000000000000001400000000000000000000000000000000
#0501b:00001300130000001300000000000013
#05016:00000013000013000000000000000000
#05012:00131313
#05015:0000000000000013
#05018:00000000000000000000000000130000
#05116:0000130000130000
#0511b:0013001300001300
#05117:0000000000000013
#05112:0013
#05118:13
#0521b:00001300000000000013000000130000
#05219:0000001300000000
#05212:1300130000130013
#05217:13000000000000000000001300000013
#05214:0000001300000000
#05216:00001313
#00015:00000016
#00112:1300000000130000
#00115:00000000000000000000000013000013
#00118:0000000000000013
#0011b:13000000000013000000001300000000
#00117:00000013000000001300000000000000
#00517:13
#00512:2300001300130000
#00514:00000013
#00516:0000000014000013
#0051b:00000013000000000000000000130000
#0051a:0014
#00518:00000000000000000000001300000000
#00918:0013000000000000
#00916:0000130000131300
#0091b:00130013
#00919:0000000000000013
#00912:0000001300000000
#00917:0000001300000000
#00915:23
#00910:41
#01016:0013000000000000
#01017:13
#01012:13
#0101b:0013000000000013
#0111b:00000013
#01114:0000000000000013
#01116:00000013
#01117:0000001300130000
#01215:00000000000000000000001300001300
#01218:0000000000130000
#0121b:00000013
#01212:13000013
#01216:0013001300000000
#01217:13130000
#0151b:1300000000000013
#01516:13130000
#01517:0013000000000000
#01512:0000001300001300
#01616:13130000
#01617:0013000000000000
#01612:0013000000140000
#01618:00000014
#0161b:1300130000000013
#01614:00000024
#0161a:0000000000240000
#01414:0000000000000013
#01417:0013000000001300
#01416:13
#0141b:13
#01412:0013000000001300
#01419:0000000000130000
#02216:0013000000000013
#02212:13130013
#02217:13
#0221b:0013001300000000
#02218:0000000000131300
#02215:00000000000000000000001300000000
#03212:0000001300000013
#03217:00000000000000000013000013001300
#0321b:0000000013130000
#0281b:0000000000000013
#02816:0012000000000013
#02814:12
#0281a:12
#02818:0012000000000000
#0281c:00120000
#02812:00120000
#0361b:13000000001300000013000013001300
#03612:1300130000131600
#03618:00130013000000130000001300000000
#03615:0013001313000000
#03616:00000000000000000000000000000013
#0691b:0000000000130000
#06919:00000013
#06912:0000140000000013
#0691a:1414
#06913:17
#06916:0014161400130000
#06914:00001613
#06917:0000000000000013
#0021b:1300000000130000
#00218:00000000000000000000000013000013
#00215:0000000000000013
#00212:13000000000013000000001300000000
#00216:00000013000000001300000000000000
#00315:0000000000130013
#00312:13000013
#00317:00000013000000001300000000000000
#0031b:13000000000013000000001300000000
#00318:00000000000000000000000000000013
#00416:00000013000000001300000000000000
#0041b:13000013
#00412:13000000000013000000001300000000
#00418:0000000000130013
#00415:00000000000000000000000000000013
#00616:1314
#0061b:1300001300130000
#00619:00000013
#00617:0000000000000013
#00612:00000013000000001400000000130000
#00615:00000000000000000000001300000000
#00717:13000000000000000000001300000000
#00712:1300001300130000
#00714:00000013
#00716:0000000014000013
#0071b:00000013000000000000000000000000
#0071a:0014
#00719:00000000000000000000000000130000
#00816:13000000000000001400001300000000
#0081b:1300001300130000
#00812:00000013000000001400000000000013
#00819:00000013
#00814:00000000000000000000000000130000
#00817:0000000000000013
#02612:0000000000000013
#02617:0000000000000013
#07012:16161600
#07016:0014001400000000
#07018:16161600
#01315:0013000000000000
#01317:0000130000131300
#01312:00130013
#01314:0000000000000013
#0131b:0000001300000000
#01316:0000001300000000
#01318:13
#01812:0013001300000013
#0181b:13130013
#01816:13
#01817:0013000000000000
#01815:0000000000131300
#01818:00000000000000000000001300000000
#01712:2313000000000013
#0171b:0000131300001300
#01718:0000000000130000
#01716:0000131300000000
#01714:00000000000000000000001300000000
#01717:2300000000000013
#01710:41
#01912:00000013
#01919:0000000000000013
#01917:00000013
#01916:0000001300130000
#02312:1300000000000013
#02317:13130000
#02316:0013000000000000
#0231b:0000001300001300
#02417:13130000
#02416:0013000000000000
#02412:13130013
#0241b:0013000000001300
#02415:0000000000130000
#02418:00000000000000000000001300000000
#0211b:1313000000000013
#02116:1300000000000013
#02117:0000131300000000
#02112:0000131300001300
#02119:00000000000000000000001300000000
#02115:0000000000130000
#02012:0000000000001313
#02018:0000000000130000
#02015:00000000000000000000001300000000
#0201b:13000013
#02017:0013001300000000
#02016:13130000
#03316:2400000016000016
#03312:0000240000000014
#0331a:24000000000000000000001400000000
#03314:00000000000000000000001600000000
#03315:0014000000000000
#03317:0000001400000000
#03414:0000001300000000
#0341b:0013000013000000
#03416:0000000000000013
#03418:00000013000000000000000000000000
#03412:00130000
#0411a:00001400000000000000001400000000
#04116:2400001426000016
#04114:00000000000000000000001600000000
#04112:2400240000000014
#04110:41
#04219:0000001300000000
#04212:00000013000000001300000000000000
#04217:0000000000000013
#04215:0013000000000000
#0421b:00130000
#05316:13
#05314:0000000000000013
#05319:0000000000000013
#05517:0000001300000000
#05515:0013
#0551b:0000130000000013
#05512:0013001300000000
#0571b:0000001300000000
#05716:00000000000000000013000013000000
#05712:0000000013130013
#05715:13
#05717:0000000000000013
#05814:0000000016000016
#05816:00000000000000000000001600000000
#05817:0014000000000000
#05815:0000001400000000
#05812:24000000000000000000001400000000
#0581a:2400240000000014
#06018:0000001400000014
#06014:0014000000140000
#06016:00141414
#0601a:0014
#06012:00140014
#06214:13000000000000000013000000000000
#0621b:0000001300000013
#06219:00130000000000001300000000000000
#06216:00002300000000130000000000001300
#06217:0000000000230000
#06212:0000000000230000
#06210:41
#06312:0013130013000013
#0631b:0000130000130000
#06319:0000001300000000
#06317:0000000013000013
#06316:0000000000130000
#06417:0000131313000000
#06412:0000000013131300
#0641b:0013130000001313
#06516:13
#0651b:13000000000013000000001300000000
#06512:00000013000000001300000000001300
#06517:0013
#06112:13000000001300000013000013001300
#0611b:1300130000130000
#06115:00130013000000130000001300000000
#06118:0013001313001600
#06117:00000000000000000000000000000013
#05916:0000001300000000
#0591b:0013001300000000
#05912:0000130000000013
#05918:0013
#06719:0000001300000000
#06716:0013
#06717:0000000000000013
#06715:0013000000000000
#06718:00130000
#06714:0000001300000000
#06816:0000130000130013
#0681b:0000000013000013
#06812:0013000000001300
#06817:0000001300000000
#05618:00001300130000130000130013000013
#05615:00000013000013001300001300001300
#05612:00130013
#0561b:0013
#0661a:2400240000000014
#06612:24000000000000000000001400000000
#06617:0014000000000000
#06615:0000001400000000
#06614:0000000026000016
#06616:00000000000000000000001600000000
#03514:0000001400000014
#03518:0014000000140000
#03516:00141414
#03512:0014
#0351a:00140014
#05416:0000000016000016
#05414:00000000000000000000001600000000
#0541a:00000000000000000000001400000000
#05412:2300000014000014
#0541b:23
#0541f:21
#05410:0041
#02556:0053000000000000
#0255b:0053000000000000
#02557:0000000000630000
#02552:0000000000630000
#00557:53
#0055b:00000023000000000000000000000000
#00552:33
#0055a:0044
#0155b:63
#01557:0023000000000000
#01556:00630000
#01552:0000002300000000
#01657:0063003300000000
#0165b:00230000
#01652:0063003300000000
#01656:00230000
#0165a:0000000000140000
#01654:00000014
#02952:54000000000000000000003400000000
#0295a:0000640044000044
#02957:0024000000000000
#02955:0000002400000000
#03252:0000006300000000
#03257:00000000000000000023000000000000
#03752:0000000000000053
#03757:0043000000000000
#03756:0000000000330000
#0375b:0000000000430000
#0385b:0000000000000063
#04057:53
#0405b:00000023000000000000000000000000
#04056:0063
#04052:00000000000000000000002300000000
#04456:0064
#04452:00340000
#0445a:4444
#04755:00630000
#04752:00000000000000230000000000000000
#0495b:00630000
#04957:0000002300000032
#04955:0036
#04956:00000000000000000000000000000000000000000000000000000000000000000000000000000000000000000000004400000000000000000000000000000000
#0525b:0023000000000000
#05252:33
#05259:0000004300000000
#05257:53
#00152:53
#0015b:43
#00157:00000023000000004300000000000000
#0025b:63
#00256:00000023000000003300000000000000
#00252:33
#00352:53
#00357:00000023000000004300000000000000
#0035b:43
#00456:00000023000000003300000000000000
#0045b:63
#00452:33
#00656:63
#00652:00000023000000003400000000000000
#0065b:43
#00757:53
#0075b:00000023000000000000000000000000
#0075a:0044
#00752:33
#00856:63
#00852:00000023000000003400000000000000
#0085b:43
#02657:0000000000000053
#02856:0052000000000000
#02858:0052000000000000
#02852:00220000
#0285c:00220000
#03652:00000036
#07058:00164600
#07052:1636
#00957:0000005300000000
#01056:0023000000000000
#01052:0000003300000000
#0105b:0023000000000000
#01057:0000003300000000
#01457:0023000000000000
#01452:0023000000000000
#0145b:0000004300000000
#01456:0000004300000000
#01356:0000006300000000
#0185b:00230000
#01852:0033000000000000
#01856:33
#01857:0053003300000000
#01756:0000005300000000
#02352:53
#02356:0023000000000000
#02357:00530000
#0235b:0000002300000000
#02456:0053004300000000
#02452:00230000
#0245b:0053004300000000
#02457:00230000
#02256:0063004300000000
#02257:43
#0225b:0043000000000000
#02252:00230000
#02157:0000006300000000
#03352:0000540034000034
#0335a:64000000440000000000004400000000
#03355:0024000000000000
#03357:0000002400000000
#0415a:0024000000000000
#04156:5400002446000046
#04152:00540000
#04154:00000000000000000000003600000000
#05356:33
#0545b:63
#05452:5300000034000034
#0545a:00000000000000000000004400000000
#0575b:0000005300000000
#05756:00000000000000000023000000000000
#0555b:0000000000000043
#05857:0024000000000000
#05855:0000002400000000
#05852:54000000340000000000003400000000
#0585a:0000540044000044
#0625b:0000000000000063
#06256:0033000000000000
#06257:0000000000430000
#06252:0000000000330000
#06556:63
#06552:00000023000000000000000000000000
#06557:0053
#0655b:00000000000000000000002300000000
#06352:0000000000000053
#06158:00000046
#06757:0000000000000043
#0695a:4444
#06952:00340000
#05952:0000000000000033
#01256:0063004300000000
#01257:53230000
#0125b:0000004300000000
#02057:0053003300000000
#02056:63230000
#02052:0000003300000000
#04853:000000000000004a
#04855:00000000000000000000003600000000
#04856:0044
#0505b:0053
#06657:0024000000000000
#06655:0000002400000000
#06654:0000000036000036
#06656:00000000000000000000004600000000
#06652:54
#0665a:00540000
#01956:0000005300000000
#01157:0000006300000000
#06056:00141414
#03556:00141414
#001320:1300002300000000
#001370:00000053000000000000000000000000
#0023b0:1300002300000000
#002360:00000053000000000000000000000000
#003320:1300002300000000
#003370:00000053000000000000000000000000
#0043b0:1300002300000000
#004360:00000053000000000000000000000000
#005370:1300002300000000
#0053b0:00000053000000000000000000000000
#006360:1300002300000000
#006320:00000053000000000000000000000000
#007370:1300002300000000
#0073b0:00000053000000000000000000000000
#008360:1300002300000000
#008320:00000053000000000000000000000000
#009370:0000001300000000
#0093b0:0000000000230000
#010360:0013000000000000
#010320:0000002300000000
#0103b1:0013000000000000
#010371:0000002300000000
#010351:0000000000000013
#011351:23
#011380:1323000000000000
#011321:0013230000000000
#0113b0:0000132300000000
#011371:0000001300000000
#011321:0000000000230000
#012371:13
#0123b1:0023000000000000
#012360:0013000000000000
#012320:00230000
#012371:00130000
#0123b1:0000002300000000
#013361:0000001300000000
#013321:0000000000230000
#014371:0013000000000000
#0143b1:0000002300000000
#014320:0013000000000000
#014360:0000002300000000
#0153b0:13230000
#015370:0053000000000000
#015361:00132300
#015321:0000005300000000
#0153b0:0013
#015370:00000023
#016370:0013002300000000
#0163b0:00530000
#016321:0013002300000000
#016361:00530000
#017361:0000001300000000
#017321:0000000000230000
#018371:0013002300000000
#0183b1:00530000
#018381:0000000000000013
#019381:23
#019350:1323000000000000
#0193b1:0013230000000000
#019320:0000132300000000
#019361:0000001300000000
#0193b1:0000000000230000
#020361:13
#020321:0023000000000000
#020370:0013000000000000
#0203b0:00230000
#020361:00130000
#020321:0000002300000000
#021371:0000001300000000
#0213b1:0000000000230000
#022361:0013002300000000
#022321:00530000
#023321:13230000
#023361:0053000000000000
#023370:00132300
#0233b0:0000005300000000
#023321:0013
#023361:00000023
#024361:0013002300000000
#024321:00530000
#0243b0:0013002300000000
#024370:00530000
#025360:0013000000000000
#025320:0000002300000000
#0253b1:0013000000000000
#025371:0000002300000000
#025371:0000000000130000
#0253b1:0000000000000023
#025320:0000000000130000
#025360:0000000000000023
#026370:1300005323000000
#0263b0:0053330000000000
#026321:1300005323000000
#026361:0053330000000000
#026371:0000000000000013
#0273b1:0023000000000000
#028361:0012002200000000
#028321:00520000
#028380:0012002200000000
#0283c0:00520000
#029320:14240000
#029370:0054000000000000
#0293a1:00142400
#029351:0000005400000000
#030381:00001323000000000000000000000000
#030371:0013
#0303b1:0000000000000000000000000000000000000053000023000000000000000000
#030360:00000000000000000000001300000000
#030320:0000000000000000000000000000000000000000000000000053000023000000
#032320:13
#032360:0000005300002300000000000000000000000000000000000000000000000000
#0323b1:00000013000000000000000000000000
#032371:0000000000000000005300002300000000000000000000000000000000000000
#032320:0000001300002300
#032370:00000000000000000053000000000000
#0333a0:14240000
#033350:0054000000000000
#033321:00142400
#033371:0000005400000000
#034351:00001323000000000000000000000000
#034361:0013
#034321:0000000000000000000000000000000000000053000023000000000000000000
#034370:00000000000000000000001300000000
#0343b0:0000000000000000000000000000000000000000000000000053000023000000
#037320:0000000000000013
#038370:0023000000000000
#0383b0:0000000000000013
#039360:0023000000000000
#040370:1300002300000000
#0403b0:00000053000000000000000000000000
#040360:0000000013000023
#040320:00000000000000000000005300000000
#041360:14240000
#0413a0:0054000000000000
#041321:00142400
#041361:0000005400000000
#042381:00001323000000000000000000000000
#042371:0000000000000000000000000000000013000053000000000000000000000000
#0423b1:00000000000000000000002300000000
#042360:0000000000000000000000000000000000000000000013000053000000000000
#042320:0000000000000023
#0433b0:0013000000000000
#043370:00230000
#043360:0000001300000000
#043320:0023
#043370:0000000000130000
#0433b0:00000023
#044360:0014
#045320:24
#0453b0:0013230000000000
#045320:0000001323000000
#0453b1:0000000013000023
#045371:00000000000000000000003300000000
#045320:00000000000000000000001300000000
#045360:0000000000000033
#046320:0023000000000000
#047350:00130000
#047320:00000000000000530000000000000000
#047360:0000000000230000
#048370:0013002300000000
#0483b0:00330000
#0493b0:00132300
#049370:0000005300000000
#0503b0:0013
#050370:00000023
#051360:0013002300000000
#051320:00330000
#051370:0013
#0513b0:0000000000230000
#051360:00000013
#051320:0000000000000023
#052370:13230000
#0523b0:0053000000000000
#0543b0:13
#054380:00230000
#054321:13
#054351:00230000
#055381:00001323000000000000000000000000
#055350:00000013230000000000000000000000
#0553b0:00000000000000001300002300000000
#055370:0000000000000000000000000000000000000053000000000000000000000000
#055361:00000000000000000000001300002300
#055321:0000000000000000000000000000000000000000000000000053000000000000
#0573b1:13
#057371:0000005300002300000000000000000000000000000000000000000000000000
#057320:00000013000000000000000000000000
#057360:0000000000000000005300002300000000000000000000000000000000000000
#0573b1:0000001300002300
#057361:00000000000000000053000000000000
#058321:14240000
#058371:0054000000000000
#0583a0:00142400
#058350:0000005400000000
#059350:00001323000000000000000000000000
#059381:00000013230000000000000000000000
#059321:00000000000000001300002300000000
#059361:0000000000000000000000000000000000000053000000000000000000000000
#059370:00000000000000000000001300002300
#0593b0:0000000000000000000000000000000000000000000000000053000000000000
#0623b0:0000000000000013
#063360:0023000000000000
#063320:0000000000000013
#064370:0023000000000000
#065360:1300002300000000
#065320:00000053000000000000000000000000
#065370:0000000013000023
#0653b0:00000000000000000000005300000000
#066320:14240000
#066370:0054000000000000
#0663a1:00142400
#066351:0000005400000000
#0673b1:00001323000000000000000000000000
#067320:00000013230000000000000000000000
#0673b0:00000000000000001300002300000000
#067370:0000000000000000000000000000000000000053000000000000000000000000
#067321:00000000000000000000001300002300
#067361:0000000000000000000000000000000000000000000000000053000000000000
#068371:0013000000000000
#0683b1:00230000
#068321:0000001300000000
#068361:0023
#0683b1:0000000000130000
#068371:00000023
