This file was generated by Ched 2.6.4.0.
#TITLE ""
#ARTIST ""
#DESIGNER ""
#DIFFICULTY 0
#PLAYLEVEL
#SONGID ""
#WAVE ""
#WAVEOFFSET 0
#JACKET ""
#REQUEST "ticks_per_beat 480"
#00002: 4
#BPM01: 182
#00008: 01
#TIL00: ""
#HISPEED 00
#MEASUREHS 00
#0021a:14
#00214:0014
#0011a:14
#00114:0014
#00418:14
#00412:0014
#00312:0014
#00318:14
#0051a:14
#00514:0014
#00618:14
#00612:0014
#00714:0014
#0071a:14
#0171a:14
#01718:0014
#01714:00140000
#01712:00000014
#01710:41
#01912:14
#01914:0014
#01918:00140000
#0191a:00000014
#0091a:2414
#00914:00140000
#00910:41
#02914:00140000
#02918:0014
#02912:00000014
#0291a:24
#02910:41
#0301a:0014
#03018:14
#03014:00140000
#03112:14
#03118:00140000
#03114:0014
#0311a:00000014
#04712:0014
#0471a:14
#00818:14
#00812:0014
#01012:1414
#01018:00140000
#0251a:00140000
#02519:1414
#02518:00000014
#02712:00140000
#02713:1414
#02714:00000014
#0331a:1414
#03314:00240000
#03412:1414
#03418:00140000
#0351a:14
#03514:00140000
#03518:0014
#03512:00000014
#04112:14
#0411a:00140000
#04114:0014
#04110:41
#0421a:14
#04212:00140000
#04218:0014
#04312:14
#0431a:00140000
#04314:0014
#04318:00000014
#0451a:14
#0451f:11
#04612:14
#0511a:0014
#05112:14
#04912:14
#0501a:14
#05214:1414
#05218:00140000
#04818:1414
#04814:00140000
#03812:1616
#03818:00160000
#03918:14
#03914:00140000
#0391a:0014
#03912:00000014
#04018:14
#07014:14141400
#07018:0014001400000000
#0111a:1414
#01114:00140014
#01312:1414
#01318:00140000
#0141a:1414
#01414:00140000
#01512:1414
#01518:00140014
#02118:14
#0211a:0014
#02114:00140000
#02112:00000014
#02314:14
#02312:0014
#02318:00140000
#0231a:00000014
#02414:14
#02413:00340000
#02218:14
#02219:00340000
#03618:14
#03614:00140000
#03619:0014
#03613:0014
#03214:14
#03218:00140000
#03212:0014
#0561a:14
#05614:00140000
#05618:0014
#05612:00000014
#05812:1414
#05818:00240000
#0591a:1414
#05914:00140000
#06012:14
#06018:00140000
#06014:0014
#0601a:00000014
#0661a:14
#06612:00140000
#06618:0014
#06712:14
#0671a:00140000
#06714:0014
#0681a:14
#06812:00140000
#06818:0014
#06814:00000014
#06318:1616
#06312:00160000
#06414:14
#06418:00140000
#06412:0014
#0641a:00000014
#06514:14
#06114:14
#06118:00140000
#06113:0014
#06119:0014
#05718:14
#05714:00140000
#0571a:0014
#0551a:00140000
#05516:0014
#05512:00000014
#01818:14
#01819:00340000
#02014:14
#02013:00340000
#0371a:2424
#03712:0024
#05418:26
#05412:0026
#0541f:21
#05410:0041
#04414:0024
#06212:2424
#0621a:0024
#06210:41
#06918:0024
#02559:5464
#02558:00000024
#0255a:00240000
#02752:00240000
#02753:6454
#02754:00000024
#0455a:64
#04652:54
#04952:54
#0505a:64
#05352:14
#05254:0064
#05458:16
#05452:0000000000000016
#03354:00140000
#04454:0014
#0405a:0014
#04058:54
#02454:54
#02258:64
#06554:64
#06552:0014
#05858:00140000
#06958:0014
#01858:64
#02054:54
#02853:0000001400000000
#0123a0:1424
#016320:1424
#018380:14
#018390:00340000
#0183a0:0024
#020340:14
#020330:00340000
#020320:0024
#022380:14
#022390:00340000
#0223a0:0024
#024340:14
#024330:00340000
#024320:0024
#025390:1434
#0253a0:00540000
#025380:00000054
#026390:34342400
#027330:1434
#027320:00540000
#027340:00000054
#028330:3434002400000000
#040380:14
#0403a0:0024
#044340:1434343424000000
#0453a0:14
#045380:0024
#046320:14
#046340:0024
#049320:14
#049340:0024
#0503a0:14
#050380:0024
#052340:0014
#053320:24
#054320:00000000000000001600003600002600
#065340:14
#065320:0024
#069380:1434343424000000
