This file was generated by Ched 2.7.0.0.
#TITLE ""
#ARTIST ""
#DESIGNER ""
#DIFFICULTY 0
#PLAYLEVEL
#SONGID ""
#WAVE ""
#WAVEOFFSET 0
#JACKET ""
#REQUEST "ticks_per_beat 480"
#00002: 4
#BPM01: 186
#BPM02: 126.0
#BPM03: 162.0
#BPM04: 143.0
#BPM05: 103.0
#BPM06: 93.0
#00008: 01
#08008: 06010000
#07908: 00040205
#07808: 00000003
#TIL00: ""
#VOLUME: ""
#HISPEED 00
#MEASUREHS 00
#01018:16
#01118:16
#0141a:14
#01410:41
#0151a:14
#01614:14
#01714:14
#0221a:14
#02312:14
#02310:41
#02514:14
#02418:14
#0341a:14
#03512:14
#0261a:14
#02712:14
#02818:14
#02914:14
#01918:14
#01818:14
#02012:14
#02112:14
#03812:0016
#03818:26
#0381f:21
#04012:16
#04018:0016
#04218:1616
#04312:16
#04318:0016
#04412:1616
#04518:16
#04512:0016
#04618:2616
#04812:1616
#05018:1616
#05112:16
#05118:0016
#05212:1616
#05318:16
#05312:0016
#0541a:14
#05512:14
#05619:14
#05613:14
#05713:14
#05719:14
#0581a:14
#05912:14
#06018:14
#06114:14
#06618:2616
#06712:16
#06718:0016
#06812:1616
#06918:16
#06912:0016
#07212:1616
#07418:1616
#07512:16
#07518:0016
#07612:1616
#07718:16
#07712:0016
#0831a:14
#08412:14
#08518:14
#08614:14
#0871a:14
#08812:14
#0301f:11
#07018:2626
#07818:2626
#08113:2424
#08119:2424
#0821a:2424
#08212:2424
#06210:41
#07110:41
#03910:41
#04910:41
#000390:00000000000000000000000000140000
#001390:00000000000000000000000000000000000000000000000000000000000000000000000000000000000000000000000000000000000000000000000000340000
#003390:0000000000000000000000340000000000000000000000000000000000000000000000000000000000000000000000000000000000000000000000000000000000000000000000000000000000000000000000000000000000000000000000000000000000000000000000000000000000000000000000000000000000000000
#004390:00000000000000000000000000000000000000240000000000000000000000000000000000000000000000000000000000000000000000000000000000000000
#005330:0000000000000000000000000000000000000000000000000000000000000000000000000000000000000000000000000000000000000000000000000000000000000000000000000014000000000000000000000000000000000000000000000000000000000000000000000000000000000000000000000000000000000000
#006330:00000034
#007330:00000000000000000000000000000000000000000000000000000000000000000000000000000000000000000000000000340000000000000000000000000000
#009330:00000000000000240000000000000000
#012320:1600003600003600
#013320:0026000000000000
#0303a0:1400003400002400
#032320:1400003400002400
#036380:1636
#037380:26
#039380:1626
#041320:1626
#047380:1626
#049320:16362600
#0623a0:14
#0633a0:24
#064320:14
#065320:24
#071380:1626
#073320:16362600
#079380:1600000000000026
#089380:1600003600003600
#090380:0036002600000000
#091320:1600003600003600
#092320:0036002600000000
