This file was generated by Ched 2.7.0.0.
#TITLE ""
#ARTIST ""
#DESIGNER ""
#DIFFICULTY 0
#PLAYLEVEL
#SONGID ""
#WAVE ""
#WAVEOFFSET 0
#JACKET ""
#REQUEST "ticks_per_beat 480"
#00002: 4
#BPM01: 186
#BPM02: 126
#BPM03: 162
#BPM04: 143
#BPM05: 103
#BPM06: 93
#00008: 01
#08008: 06010000
#07908: 00040205
#07808: 00000003
#TIL00: ""
#VOLUME: ""
#HISPEED 00
#MEASUREHS 00
#00717:00000000000000000000000000000000000000000000000000000012000000000000000000000000000000000000000000000000000000000000000000000000
#00714:0000000000000000000000000000000000000000000000000000000000000000000000000000000000000012000000000000000000000000000000000000000000000000000000000000000000000000000000000000000000000000000000000000000000000000000000000000000000000000000000000000000000000000
#00719:000000000000000000000000000000000000000000000000000000000000000000000000000000000000000000000000000000000000000000000000000000000000000000000000000000000000000000000000000000000000000000000000000000000012000000000000000000000000000000000000000000000000000000000000000000000000000000000000000000000000000000000000000000000000000000000000000000000000000000000000000000000000000000000000000000000000000000000000000000000000000000000000000000000000000000000000000000000000000000000000000000000000000000000000000000000000000000000000000000000000000000000000000000000000000000000000000000000000000000000000000000000000000000000000000000000000000000000000000000000000000000000000000000000000000000000000000000000000000000000000000000000000000000000000000000000000000000000000
#00716:00000000000000000000000000000000000000000000000000000000000000000000000000000000000000000000000000120000000000000000000000000000
#0061b:00000012
#00619:0000000000000000000000000000000000000000000000000000000000000000000000000000000000000000000000000000000000000000001200000000000000000000000000000000000000000000000000000000000000000000000000000000000000000000000000000000000000000000000000000000000000000000
#00617:00000000000000000012000000000000000000000000000000000000000000000000000000000000000000000000000000000000000000000000000000000000
#00613:00000012
#00518:0000000000000000000000000000000000000000000000000000000000000000000000000000000000000000000000000000000000000000000000000000000000000000000000000012000000000000000000000000000000000000000000000000000000000000000000000000000000000000000000000000000000000000
#0051a:00120000
#00512:0000000000000000000000000000000000000000000000000000000000000000000000000000000000000000000000000000000000000000000000000000000000000000000000000012000000000000000000000000000000000000000000000000000000000000000000000000000000000000000000000000000000000000
#00514:00120000
#00416:000000000000000000000000000000000000000000000000000000000000000000000000000000000000000000000000000000000000000000000000000000000000000000000000000000000000000000000000000000000000000000000000000000000000000000000000000000000000000000000000000000000000000000000000000000000000000000000000000000000000000000000000000000000000000000000000000000000000000000000000000000000000000000000000000000000000000000000000000000000000000000000000000000000000000000000000000000000000000000000000000000000000000000000000000000000000000000000000000000000000000000000000000000000000000000000000000000000000000000000000000000000000000000000000000000000000000000000000000000000000000000000000000000000000000000000000000000000000000000000000001200000000000000000000000000000000000000000000
#00414:00000000000000000000000000000000000000120000000000000000000000000000000000000000000000000000000000000000000000000000000000000000
#0041a:00000000000000000000000000000000000000120000000000000000000000000000000000000000000000000000000000000000000000000000000000000000
#0041c:000000000000000000000000000000000000000000000000000000000000000000000000000000000000000000000000000000000000000000000000000000000000000000000000000000000000000000000000000000000000000000000000000000000000000000000000000000000000000000000000000000000000000000000000000000000000000000000000000000000000000000000000000000000000000000000000000000000000000000000000000000000000000000000000000000000000000000000000000000000000000000000000000000000000000000000000000000000000000000000000000000000000000000000000000000000000000000000000000000000000000000000000000000000000000000000000000000000000000000000000000000000000000000000000000000000000000000000000000000000000000000000000000000000000000000000000000000000000000000000000001200000000000000000000000000000000000000000000
#00318:00000000000000000000000000000000000000000000000000000000000000000000000000000000000000000000000000000000000000000000000000120000
#0031a:0000000000000000000000000000000000000000001200000000000000000000
#0031c:0000000000000000000000000000000000000000000000000000000000000000000000000000000000000000000000000012000000000000000000000000000000000000000000000000000000000000000000000000000000000000000000000000000000000000000000000000000000000000000000000000000000000000
#00314:0000000000000000000000120000000000000000000000000000000000000000000000000000000000000000000000000000000000000000000000000000000000000000000000000000000000000000000000000000000000000000000000000000000000000000000000000000000000000000000000000000000000000000
#00319:0000000000000000000000120000000000000000000000000000000000000000000000000000000000000000000000000000000000000000000000000000000000000000000000000000000000000000000000000000000000000000000000000000000000000000000000000000000000000000000000000000000000000000
#0021b:00000000000000000000000000120000
#00217:0000000000000000000000000000000000120000000000000000000000000000
#00118:00000000000000000000000000000000000000000000000000000000000000000000000000000000000000000000000000000000000000000000000000120000
#0011a:00000000000000000000000000000000000000000000000000000000000000000000000000000000000000120000000000000000000000000000000000000000
#00116:0000000000000000000000000000000000000000000000000000000000000000000000000000000000000000000000000012000000000000000000000000000000000000000000000000000000000000000000000000000000000000000000000000000000000000000000000000000000000000000000000000000000000000
#00113:00000000000000000000000000000000000000000000000000000000000000000000000000000000000000000000000000000000000000000000000000120000
#00012:00000000000000000000000000120000
#00019:00000000000000000000000000000000000000000000000000000000000000000012000000000000000000000000000000000000000000000000000000000000
#00015:0000000000000012000000000000000000000000000000000000000000000000
#00017:00000000000000000000000000120000
#01018:00130000
#01015:2323000000000013
#01012:0000001300000000
#0101b:0023000000000000
#01019:00000000000000000033003300000000
#0111b:0000130000000013
#01115:0000001300000000
#01112:2323000000000000
#01118:2323000000000000
#01114:00000000000000000033003300000000
#01317:0013
#01314:00000013
#01312:13000000001300001300000000000000
#01315:00000013000000000000000000000000
#0131b:00130000
#01318:0023001300000000
#01319:00000013
#01517:0000001300000000
#0151b:1313
#01518:00000013
#01515:0000000000000013
#01512:13131313
#01616:0000001300000000
#01612:13001313
#01618:0000000000000013
#0161b:13131313
#01712:0000001300000000
#01716:1313
#0171b:13131313
#0201b:13
#02015:0000000000000013
#02018:00000013
#02012:13131313
#02017:0000001300000000
#02918:00000000000000001300000000130013
#02912:0024000013130000
#02915:0000000000001313
#0291a:0024000000000000
#0301b:13130000
#03012:1300001300001300
#03015:0013000000130000
#03018:0000001313001300
#0301f:11
#03512:1313
#03515:00000000000013000000000000130000
#03518:00000000000000130000000013000000
#0351b:0000000000000013
#03718:16
#03719:0013
#03713:00000013
#03712:16
#03714:0013
#0371a:00000013
#0391b:13000000130013000000001300000000
#03912:00001313
#03915:13000000000000000000130000000013
#03918:0013000013000013
#03910:41
#04118:0000000000131313
#04113:00130000
#04114:0013
#04112:13
#0411a:00130000
#0411b:0013
#04119:13
#04115:00001400000000000000001300000013
#04117:0000001400000000
#04212:23001313
#0421b:2300130013000013
#04218:0000001300001300
#04215:0000130000000013
#04317:13131300
#04316:0013001300000000
#04318:00000013
#04312:13131300
#04319:0000000000000013
#0431b:0013001300000000
#04314:00000013
#05412:00130000
#0541b:0000000013000013
#05415:23001313
#05418:00000000130000000000001300000000
#05416:0000001400000000
#05512:13001313
#05518:00001300000000000000001300000013
#05515:0000130000130013
#0551b:00000000000013000013000000130000
#05912:00001300000013000000001300000013
#0591b:1313000000130013
#05918:00000000001300001300000013000000
#05915:00000000130000000013000000130000
#07912:1300000013131313
#0791b:0013000013131313
#07915:00130000
#07918:0000001300000000
#0141b:13
#01412:23131313
#01417:0013
#01410:41
#0181b:1313
#01818:0000000000000013
#01812:13131313
#01817:00000013000000000000000000000000
#01914:00000013
#0191b:13131313
#01912:1313
#01916:00000013000000000000000000000000
#02112:0013
#02115:00000013
#0211b:13131313
#02416:1300000000000013
#0241b:1313
#02419:00150015
#02412:0000001313000000
#02516:1313
#02512:0000001300000000
#0251b:1313
#02519:00150015
#02617:1313
#02612:1313
#0261b:00000013000000000000000000001300
#02616:00000013000000000000000000001300
#02716:1313
#0271b:1313
#02712:00000013000000000000000000000000
#02717:00000013000000000000000000000000
#02816:0000001300000000
#0281b:00000013
#02812:00130000
#02817:0000000000000013
#03312:0013
#03318:000000000000001300000000
#03313:000013
#03319:00000013
#03314:000000000013
#0331a:000000000000000000000013
#03612:1313000000000000
#03614:0000131300001313
#03616:0000000013130000
#03617:1313000000000000
#03619:0000131300001313
#0361b:0000000013130000
#03812:23131313
#03819:0000001300000000
#03818:0000000000000013
#03817:00130000
#03815:0000000000130000
#0381b:2313
#0381f:21
#04512:13131313
#04519:0000000000000013
#0451b:0013001300000000
#04516:0013001300000000
#04517:00131313
#04514:0000000000000013
#0491b:00002313
#04918:0000230000130013
#04915:00000000230000000000000000130000
#04912:00000000000000002300001300000013
#04913:23
#0491a:23
#04910:41
#05012:0000130013000013
#05019:0000001300000000
#0501b:2313
#05017:00130000
#05018:0000000000130000
#05015:00000000000000000000001300000000
#05618:00120012
#05616:0000001200000012
#0561a:0012
#05614:0000000000120000
#05612:13
#05818:0000130000000013
#0581b:2300001300001300
#05812:00000013000000000000130000000000
#05815:00000000000000001300000000000013
#05819:000000000000003300000033000000000000000000000000
#0581a:000000003333000000000000
#05814:000000000000000000000000003300000033000000000000
#05813:000000000000003333000000
#04412:1300001313000013
#0441a:13
#0441b:0013130000131300
#04416:00000013000000000000001300000000
#04417:00000000000000130000000000000013
#05112:00001313
#05119:0000000000000013
#05117:00000013
#05116:13
#05114:00130000
#07415:0013001300130000
#0741b:0000131300000013
#07412:26131300
#07418:00000013000000001600001300000000
#07512:13000013
#07515:00001300000000000000000000000013
#0751b:0000130000000013
#07518:0000001300000000
#07514:0013
#07519:0013
#07116:00000014
#07119:0000000000130013
#07112:1313
#0711b:13131300
#07118:0013001300000000
#07114:0000000000130013
#07110:41
#0771b:0023000023001300
#07712:00000000230000002300000000130000
#07718:2300000000000013
#07715:00000000000000000000000000000013
#07716:0023000000000000
#07717:00230000
#07714:0000002300000000
#07719:0000002300000000
#0781b:00000000001300000000000013000000
#07815:0000001300000013
#07812:00132600
#07818:26000000000000130000000000000013
#05316:14131300
#0531b:00131300
#05312:0013001300000000
#05317:0013001300000000
#05315:0000000000001313
#05318:00000000000000000000000000130013
#0821b:2313000000001300
#08212:13001300000000002600000000130000
#08219:0000141400000000
#08213:0000241400000000
#08218:0000000026000013
#08215:00000000000000000000000000000013
#09018:00001313
#0901b:1300000000130013
#09012:00000000000013000000001300000013
#09015:00000000000000000013000000130000
#04617:0013
#04614:0000001300000000
#04612:00001313
#04619:0000001300000000
#04615:0000000000130013
#0461b:2300230000000013
#04616:23230000
#05216:1314141414141414
#0521b:13
#05212:00000014000000000000001400000000
#0521a:00000000000000140000000000000014
#05715:00130000001300000000001300000013
#05718:0013230000132300
#05712:00000013000000130013000000130000
#0571b:2300001323000013
#06119:120000120000120000120000120000120000000033000000
#06115:00120012001200120012001200000000
#0611a:000000000000000000000000000000000000003300000000
#06117:000000000000000000000000000000000000000000333300
#06116:000000000000000000000000000000000000000000000033
#08919:00130000
#08914:0000000000130000
#0911a:00140000
#09117:24140000000000001414000024140000
#09115:00001414000024140000000000001414
#09112:0000000000140000
#09216:00002414241424000000000000000000
#0921a:14
#06012:00130013000000000013001300000000
#06018:2313000023130000
#06015:00000000001300130000000000130013
#0601b:0000231300002313
#0401b:1300000013000013
#04019:00130013
#0471b:0000001300001300
#04718:13000000000000001300130000000013
#04715:00001300000013000000001300001300
#04712:13131300
#04812:13130000
#0481b:13
#04815:0013000000000000
#04817:00130000
#04814:0000001300000000
#04819:0000001300000000
#01218:00130000000023001300000000130000
#01215:23001300000000130000000000001300
#0121b:00000013000000000000130000000013
#01212:00000000130000000013000023000000
#0621a:00121200
#06215:0000001200000000
#06214:0000000000120000
#06218:00000000000000000000001200000000
#06216:0000000000000012
#06212:23
#06210:41
#06314:00000012000000000000000000000000
#0631a:0000120000000012
#06316:0000001200001200
#06318:0012
#06418:00120012
#06416:0000001200000012
#06414:0000000000120000
#0641a:0012
#06612:23131300
#06615:00001300000013000000001300001300
#06618:00000013000000000000130000000000
#0661b:2300001313000000
#06516:0014001400000000
#06512:2400240024130000
#06515:00000000000000000000000013000013
#06518:00000000000000000000001300001300
#0651a:24242400
#06718:13000013
#0671b:0013000000000013
#06712:00131300
#06715:0000001300000000
#06815:13
#06812:00001300000000130000130000000013
#0681b:00000013000013000000001300001300
#03115:0000000013000013
#0311b:0013
#03118:00000013
#03212:13130000
#0321b:1300001300001300
#03218:0013000000130000
#03215:0000001313001300
#0231b:13130013
#02312:13151315
#02317:0013000000000000
#02318:0000000000000013
#02310:41
#0221b:13
#02217:0013
#02212:23151315
#07015:0000000000130013
#07012:23001413
#0701a:0014
#07016:00230000
#0701b:00230000
#07019:003300000033000000000000000000000000000000000000
#07018:003333000000000000000000
#07212:13
#0721b:1300001300000013
#07215:0013000000130000
#07218:00000013000000000000000000000000
#07316:0014001400000000
#07312:24242413
#07318:00000000000000000000000000130000
#07315:0000000000000013
#0731b:00000000000000000000000000000013
#0731a:24242400
#07615:0013000000130000
#0761b:00000013000000000000001300000000
#07618:0000001300000013
#07612:00000000000000130000000000000013
#08115:00130000000000130013000000000013
#0811b:0013001323002300
#08112:00000013001300000000001300130000
#08118:2300230000130013
#08315:0013000000130000
#08312:23131300
#0831b:23000000130000000000001300000000
#08318:00000000000013000013000000001300
#08415:13000000000013000013000000001300
#0841b:1313
#08418:0013130000130000
#08412:00000000130000000000001300000000
#08518:13000000000013000013000000001300
#08512:1313
#08515:0013130000130000
#0851b:00000000130000000000001300000000
#08615:1300000000130000
#0861b:13
#08618:00001300000000000000001300001300
#08612:0013000000000000
#08715:0013000000130000
#08712:00131300
#0871b:23000000130000000000001300000000
#08718:00000000000013000013000000001300
#08815:13000000000013000013000000001300
#0881b:1313
#08818:0013130000130000
#08812:00000000130000000000001300000000
#06917:00230013
#06912:00232300
#0691b:0023000023000000
#06918:23
#06916:0023000000000000
#06914:000000000000000000230000000000000000003300000033
#06919:0000002300000000
#06915:000000000000000000003333
#08013:00002323
#0801a:00002323
#00756:00000000000000000000000000000000000000000000000000000000000000000000000000000000000000000000000000520000000000000000000000000000
#0205b:53
#03052:0000003300003300
#0305b:43
#03058:00000043
#03758:46
#03752:36
#0145b:53
#01457:0053
#02556:53
#02657:63
#0265b:00000023000000000000000000000000
#02652:63
#02656:00000023000000000000000000000000
#04552:0013
#04557:0013
#05052:0013
#0505b:4313
#07552:13
#0755b:00130000
#07554:0013
#07559:0013
#07458:0016
#07452:16
#0535b:0013
#05356:0013
#04657:0013
#04652:0013
#04656:13
#0465b:13
#04153:00130000
#04154:0013
#04152:13
#0415a:00130000
#0415b:0013
#04159:13
#0585b:4300002300000000
#05858:00630000
#05852:0000000000230000
#05855:0053
#08959:00130000
#08954:0000000000130000
#0905b:13
#09052:0000001300000000
#0915a:00140000
#09152:0000000000140000
#05156:13
#05152:0013
#05154:00130000
#01756:53
#0185b:63
#01857:00000023000000000000000000000000
#01952:53
#01956:00000023000000000000000000000000
#0325b:0000004300004300
#03252:33
#03255:00000033
#01652:53
#0155b:53
#0235b:00530000
#0225b:53
#02257:0053
#02452:0053
#02456:53
#02756:53
#02752:00000023000000000000000000000000
#0275b:53
#02757:00000023000000000000000000000000
#0925a:14
#09256:0000001400000000
#0385b:4343
#03852:33
#07858:46
#07852:0036
#08258:0016
#08252:0016
#04252:3333
#0425b:43
#04953:13
#0495a:13
#04952:0013
#0495b:0013
#04958:00130000
#04955:00130000
#0655a:4444
#06552:00343400
#07352:3434
#0735a:00444400
#0665b:13
#06652:0013
#07052:3314
#0705a:0014
#07056:00330000
#0705b:00430000
#06952:0033
#0695b:0043
#07752:0033
#0775b:0043
#007360:00000000000000000000000000000000000000000000000000000000000000000000000000000000000000000000000000120000000000000000000000000000
#009320:00000000000000220000000000000000
#009370:00000013
#009380:00000000000000000000000000330000
#009390:0000000000000033
#0093a0:00000000000000000000000000000033
#0103b0:23
#010380:0013
#010390:00000000000000000033003300000000
#0103b0:0000000000330000
#010370:00000023
#011350:0013
#011340:00000000000000000033003300000000
#011320:0000000000330000
#011360:00000023
#0143b0:13
#014370:0000002300000000
#014370:0013
#0143b0:0000000000000023
#0153b0:13
#015370:00230000
#016320:13
#016360:00230000
#017360:13
#017320:00230000
#0183b0:1300002300000000
#018370:00000053000000000000000000000000
#019320:1300002300000000
#019360:00000053000000000000000000000000
#0203b0:13
#020370:00230000
#0223b0:13
#022370:0000002300000000
#022370:0013
#0223b0:0000000000000023
#0233b0:00130000
#023370:0023
#024360:13
#024320:00230000
#024320:0013
#024360:00000023
#025360:13
#025320:00230000
#026370:1300002300000000
#0263b0:00000053000000000000000000000000
#026321:1300002300000000
#026361:00000053000000000000000000000000
#027361:1300002300000000
#027321:00000053000000000000000000000000
#0273b0:1300002300000000
#027370:00000053000000000000000000000000
#027320:00000013
#027350:0000000000000053
#028320:23
#0273b1:00000013
#027381:0000000000000053
#0283b1:23
#028371:00130000
#0283b1:0000002300000000
#028361:00000013
#028321:0000000000000023
#034351:13230000
#0343b0:00132300
#034321:00001323
#034380:00000013
#035380:23
#0383b0:00000000000000000000001300000000
#038380:00000023
#039320:00000013000000000000000000000000
#039350:00230000
#040320:1300003300330023
#040360:00333333
#0463b0:00000000000000000000001300000000
#046380:00000023
#047380:00000013000000000000000000000000
#0473b0:00230000
#048360:00001333
#048320:0000000000330023
#0483b1:00001333
#048371:0000000000330023
#050381:00000013
#0503b1:0000000000000033
#051391:33
#0513b1:0033003300000000
#051381:00330000
#051371:0023
#058381:00132300
#058391:000000000000003300000033000000000000000000000000
#0583a1:000000003333000000000000
#0583b1:0000003300000000
#058350:00001323
#058340:000000000000000000000000003300000033000000000000
#058330:000000000000003333000000
#058320:0000000000330000
#0613b0:00000013
#0613a0:000000000000000000000000000000000000003300000000
#061390:000000000033
#061370:000000000000000000000000000000000000000000333300
#061360:000000000000000000000000000000000000000000000033
#062350:23
#0633a0:12000022000000000000000000000000
#064340:12220000
#066380:00000013
#0663b0:0000000000000023
#067320:13
#067350:0023000000000000
#067380:00132300
#0673b0:0000003300000000
#067350:00000013
#067320:0000000000000023
#068380:13
#0683b0:0023000000000000
#068350:00130000
#068320:0000002300000000
#068380:0013
#0683b0:0000000000230000
#068350:00000013
#068320:0000000000000023
#069320:00000013
#069340:000000000000000000000000000000000000003300000033
#069350:000000000000000000003333
#069360:0000000000000033
#070320:23
#0703b1:13230000
#070391:003300000033000000000000000000000000000000000000
#070381:003333000000000000000000
#070371:0033000000000000
#0703b1:00000000000000000000001300000000
#070381:0000000000003323
#071321:00000013000000000000000000000000
#071351:0000332300000000
#072321:00132300
#072361:0000003300000000
#072370:0013
#0723b0:0000000000230000
#072320:00000013
#072360:0000000000000023
#074320:00000013
#074350:0000000000000023
#075380:13
#0753b0:0023000000000000
#075350:00130000
#075320:0000002300000000
#076380:13
#0763b0:0023000000000000
#076350:00130000
#076320:0000002300000000
#076380:0013
#0763b0:0000000000230000
#076350:00000013
#076320:0000000000000023
#083320:0000000000001323
#0843b0:0000000000001323
#085320:0000000000001323
#0863b0:00000000132300000000000000000000
#086351:00000000001323000000000000000000
#086380:00000000000013230000000000000000
#086321:00000000000000132300000000000000
#0863b0:0000000013230000
#086320:00000013
#086330:00000000000000000000000000330000
#086340:0000000000000033
#086350:00000000000000000000000000000033
#087360:23
#087320:0000000000001323
#0883b0:0000000000001323
#089390:13230000000000000000000000000000
#089341:00132300000000000000000000000000
#0893b0:00001323000000000000000000000000
#089361:00000013230000000000000000000000
#089341:00000000000013230000000000000000
#089390:00000000000000132300000000000000
#089321:00000000000000001323000000000000
#089370:00000000000000000013230000000000
#0893b0:00000000000000000000000013230000
#089321:00000000000000000000000000132300
#089380:00000000000000000000000000001323
#089351:00000000000000000000000000000013
#090351:23
#090321:00001323000000000000000000000000
#0903b0:00000013230000000000000000000000
#090351:00000000132300000000000000000000
#090380:00000000001323000000000000000000
