This file was generated by Ched 2.7.0.0.
#TITLE ""
#ARTIST ""
#DESIGNER ""
#DIFFICULTY 0
#PLAYLEVEL
#SONGID ""
#WAVE ""
#WAVEOFFSET 0
#JACKET ""
#REQUEST "ticks_per_beat 480"
#00002: 4
#BPM01: 186
#BPM02: 126.0
#BPM03: 162.0
#BPM04: 143.0
#BPM05: 103.0
#BPM06: 93.0
#00008: 01
#08008: 06010000
#07908: 00040205
#07808: 00000003
#TIL00: ""
#VOLUME: ""
#HISPEED 00
#MEASUREHS 00
#00617:0000000000000000000000000000000000000000000000000000000000000000000000000000000000000000000000000000000000000000001200000000000000000000000000000000000000000000000000000000000000000000000000000000000000000000000000000000000000000000000000000000000000000000
#00619:00000000000000000012000000000000000000000000000000000000000000000000000000000000000000000000000000000000000000000000000000000000
#00615:00000012
#00515:0000000000000000000000000000000000000000000000000000000000000000000000000000000000000000000000000000000000000000000000000000000000000000000000000012000000000000000000000000000000000000000000000000000000000000000000000000000000000000000000000000000000000000
#00517:00120000
#00415:00000000000000000000000000000000000000120000000000000000000000000000000000000000000000000000000000000000000000000000000000000000
#00419:000000000000000000000000000000000000000000000000000000000000000000000000000000000000000000000000000000000000000000000000000000000000000000000000000000000000000000000000000000000000000000000000000000000000000000000000000000000000000000000000000000000000000000000000000000000000000000000000000000000000000000000000000000000000000000000000000000000000000000000000000000000000000000000000000000000000000000000000000000000000000000000000000000000000000000000000000000000000000000000000000000000000000000000000000000000000000000000000000000000000000000000000000000000000000000000000000000000000000000000000000000000000000000000000000000000000000000000000000000000000000000000000000000000000000000000000000000000000000000000000001200000000000000000000000000000000000000000000
#00319:0000000000000000000000000000000000000000000000000000000000000000000000000000000000000000000000000012000000000000000000000000000000000000000000000000000000000000000000000000000000000000000000000000000000000000000000000000000000000000000000000000120000000000
#00315:0000000000000000000000120000000000000000000000000000000000000000000000000000000000000000000000000000000000000000000000000000000000000000000000000000000000000000000000001200000000000000000000000000000000000000000000000000000000000000000000000000000000000000
#00219:00000000000000000000000000120000
#00215:0000000000000000000000000000000000120000000000000000000000000000
#00119:00000000000000000000000000000000000000000000000000000000000000000000000000000000000000000000000000000000000000000000000000120000
#00117:00000000000000000000000000000000000000000000000000000000000000000000000000000000000000120000000000000000000000000000000000000000
#00115:0000000000000000000000000000000000000000000000000000000000000000000000000000000000000000000000000012000000000000000000000000000000000000000000000000000000000000000000000000000000000000000000000000000000000000000000000000000000000000000000000000000000000000
#00017:00000000000000000000000000000000000000000000000000000000000000000012000000000000000000000000000000000000000000000000000000000000
#00015:0000000000000012000000000000000000000000000000000000000000000000
#00019:00000000000000000000000000120000
#00716:00000000000000000000000000000000000000000000000000000000000000000000000000000000000000000000000000120000000000000000000000000000
#01016:00130000
#01017:0000000000000013
#0101b:00130000
#01117:00130000
#01116:0000000000000013
#01112:13130000
#0131b:0013
#01315:00000013
#0151b:13000013
#01515:00131300
#01518:0000001300000000
#01512:1300000000000013
#01615:0000001300000000
#0161b:0000000013000013
#01612:00000013
#01715:13
#01718:00130000
#01718:00130000
#01712:0000001300000000
#0171b:0013
#01812:13
#01816:0000000013000013
#0181b:0013
#0191b:13
#01917:0013
#01919:00000013
#01912:0013
#01914:00000013
#0201b:1300000000000013
#02012:00130000
#02018:0000001300000000
#02015:00000013
#02016:13
#0291b:0013
#02918:00000013
#02915:0026000013000000
#02912:00000013
#03012:0000001400000000
#03016:00000014
#0301a:14
#0301f:11
#03514:13
#03519:13
#0371a:14
#03718:0013
#03715:00000013
#03712:14
#03918:0000001300000000
#03915:0013
#0391b:13000013
#03912:0000000000000013
#03913:00000033000000000000000000000000
#03910:41
#04018:1313
#04012:0000001300000013
#04015:0000000000130000
#0401b:00000013
#0411b:0013
#04115:00000013
#04118:0000000000000013
#04112:0000001300000000
#04215:00000013
#04218:0000140000000013
#0421a:0014
#04214:0000001400000000
#04212:24
#0431b:1313
#04312:0013000013000000
#04318:0000130000000013
#04315:1300001300001300
#05418:00130013
#05412:0000001300000013
#0541b:0013
#05415:00000000000000000000001300000000
#0551b:1313
#05515:0013000013000000
#05518:00000000130000000000003313330000
#05512:00000000000013000000003313330000
#0551a:00000000000000000033000000000033
#05519:0000000000330033
#05514:00000000000000000033000000000033
#05513:0000000000330033
#0591b:0013000013000000
#05912:1300000000130000
#05918:00000000001300000000000013000000
#05915:0000131300000013
#06118:00000013
#07918:1313
#07915:0013000000130000
#0791b:00130013
#07912:0000001300000013
#02112:0013
#02118:00000013
#02312:13000013
#02318:0013000000000000
#0231b:1300000000000013
#02310:41
#02418:0000001300000000
#02412:0000000000000013
#02518:13
#02515:00130000
#02515:00130000
#0251b:0000001300000000
#02512:0013
#0261b:13
#02617:0000000013000013
#02612:0000000013000013
#02712:13
#02716:0013
#02714:00000013
#0271b:0013
#02719:00000013
#02812:1300000000000013
#0281b:00130000
#02815:0000001300000000
#02818:00000013
#02817:13
#03112:0013
#03115:00000013
#03118:0013
#0311b:00000013
#0341b:0013
#03412:13
#03615:0013001300130013
#03618:13131313
#03814:00140000
#03818:0000001400000000
#03812:0000000014000013
#0381a:24000000000000000000003300000000
#0381f:21
#0451a:1414
#04512:00140000
#04516:0014001400000000
#04515:00000013
#04518:0000000000000013
#04715:0000001300000000
#04718:0013
#04712:13000013
#0471b:0000000000000013
#0471a:00000033000000000000000000000000
#0481b:0000001300000013
#04815:1313
#04818:0000000000130000
#04812:00000013
#04918:00002613
#04915:0000260000000013
#04912:26
#04910:41
#05018:2600001600001300
#05015:0000000000000013
#05012:00161600
#05112:1313
#0511b:0013000013000000
#05115:0000130000000013
#05118:1300001300001300
#04612:2600001600000000
#0461b:0000000000000013
#04618:00261600
#04613:00000000000000000000003300000000
#0531b:00000013
#05312:1414
#0531a:00000000140000000000000000330000
#05316:0014001400000000
#05319:0000000000000033
#05318:00000000000000000000000000000033
#05619:00120012
#05615:0000001200000012
#0561c:0012
#05612:0000000000120000
#05818:0000000000000013
#0581a:24
#06012:1323
#06015:0013001300002300
#0601b:2313
#06018:0000230000130013
#0621a:00120000
#06216:0012
#06218:00000012
#06215:23
#06210:41
#06314:12
#0631a:00120000
#06316:0012
#06318:00000012
#06414:12
#0641a:00120000
#06418:00000012
#06416:0012
#0651a:00000014
#06512:00002614
#06516:0000000000000014
#06518:26
#06515:00260000
#06618:00000013
#06615:0000000000000013
#06612:00141400
#06616:0000001400000000
#0661a:24140000
#06712:1313
#0671b:0013000013001300
#06715:0000130000000013
#06718:1300001300000000
#04415:0000130000130013
#04412:1313
#0441b:1313
#04418:0013001300001300
#07415:00000013
#07418:0000001400000013
#0741a:00140000
#07412:00140000
#07416:2414
#0751b:1313
#07512:0013000013001300
#07518:0000130000000013
#07515:1300001300000000
#07112:1300001300000000
#0711b:0013
#07115:00001313
#07118:0000000000000013
#07119:00000033000000000000000000000000
#07110:41
#07212:13000013
#0721b:0000001300000013
#07215:0013
#07218:0000000000130000
#0701b:0000000000000013
#07016:0000001400000013
#0701a:00141400
#07012:24140000
#07014:00000000000000000000003300000000
#07718:0024000000001600
#07712:2400000000000016
#0771a:0000002400000000
#07714:00240000
#07716:0024
#0781b:00000013
#07812:0000160026000013
#07818:2600001600000000
#06912:0000002400001400
#0691a:24000014
#06916:0000000024000014
#06918:00240000
#06914:0024000000000000
#07312:26000014
#0731a:00000014
#07314:0000000000000014
#07315:00260000
#07318:0026
#08316:13
#08312:0000000000000013
#0811a:2414000000000000
#08114:0000241400000000
#08118:0000000024140000
#08112:0000000000002414
#08212:0016001600001300
#0821b:0000000000000013
#08218:26262600
#08417:13
#0841b:0000000000000013
#08516:13
#08512:0000000000000013
#08618:0013000000000000
#0861b:00000013
#08612:0000000000000013
#08615:13
#08717:13
#0871b:0000000000000013
#0901b:0013
#09015:0000000000130000
#09018:00000013
#09012:0000000000000013
#09218:00000014001400000000000000000000
#09214:0024242400000000
#08816:13
#08812:0000000000000013
#0321a:0000001400000000
#03216:00000014
#03212:14
#0331b:0013
#05218:0000130000130013
#0521b:1313
#05212:1313
#05215:0013001300001300
#06815:0000001300000013
#06812:13131313
#0681b:13131313
#06818:0013000000130000
#07618:0000001300000013
#0761b:13131313
#07612:13131313
#07615:0013000000130000
#08014:00002323
#08019:00002323
#01410:41
#01852:53
#0195b:53
#03052:0000003400000000
#03056:00000014
#0305a:44
#0375a:44
#03752:34
#04058:53
#0265b:63
#02752:63
#0345b:0063
#03452:53
#0425a:0044
#04252:34
#0455a:0014
#05052:0036
#05058:46
#0535b:00000063
#05352:0014
#0555b:0053
#05558:00000023
#05555:0053
#05552:00000023
#06652:0034
#0665a:44
#07252:53
#0705a:0044
#07052:34
#07456:1414
#08356:53
#08457:63
#08556:53
#08757:53
#03852:0034
#0385a:44
#04658:0046
#04652:36
#08856:63
#0325a:0000004400000000
#03256:00000014
#03252:34
#07858:46
#07852:0036
#08258:0016
#09254:0000001400000000
#08656:0014
#0335b:0063
#04855:63
#0585a:44
#06956:0014
#07756:0014
#0073a0:000000000000000000000000000000000000000000000000000000000000000000000000000000000000000000000000000000000000000000000000000000000000000000000000000000000000000000000000000000000000000000000000000000000012000000000000000000000000000000000000000000000000000000320000000000000000000000000000000000000000000000000000000000000000220000000000000000000000000000000000000000000000000000000000000000000000000000000000000000000000000000000000000000000000000000000000000000000000000000000000000000000000000000000000000000000000000000000000000000000000000000000000000000000000000000000000000000000000000000000000000000000000000000000000000000000000000000000000000000000000000000000000000000000000000000000000000000000000000000000000000000000000000000000000000000000000000000000000
#009320:00000013
#009330:00000000000000000000000000330000
#009340:0000000000000033
#009350:00000000000000000000000000000033
#010360:23
#010360:0013
#010350:00000000000000000033000000000000
#010340:0000000000330000
#010330:00000000000000000000003300000000
#010320:00000023
#011370:0013
#011380:00000000000000000033000000000000
#011390:0000000000330000
#0113a0:00000000000000000000003300000000
#0113b0:00000023
#0123a0:14
#012390:00340000000000000000000000000000
#012380:0034000000000000
#012370:00000034000000000000000000000000
#012360:00240000
#012320:0000001400000000
#012330:00000000000000340000000000000000
#012340:0034
#012350:00000000000000000034000000000000
#012360:0000000000240000
#0123a0:00000014
#012390:00000000000000000000000000340000
#012380:0000000000000034
#012370:00000000000000000000000000000034
#013360:24
#013320:0014000000000000
#013330:00000034000000000000000000000000
#013340:00340000
#013350:00000000003400000000000000000000
#013360:0000002400000000
#014380:1300002300000000
#014350:0000000013000023
#016380:13230000
#018320:13
#018360:0000002300000000
#0193b0:13
#019370:0000002300000000
#022350:1300002300000000
#022380:0000000013000023
#023350:00130000
#023320:0023
#024350:13230000
#0243b0:00001323
#0263b0:13
#026370:0000002300000000
#027320:13
#027360:0000002300000000
#0333b0:0013
#033370:00000023
#034320:13
#034360:00230000
#0343b0:0013
#034370:00000023
#035340:00001323
#035391:00001323
#038381:0000000000130000
#0383a1:00000000000000000000003300000000
#0383b1:00000023
#039351:0013000000000000
#039331:00000033000000000000000000000000
#039321:00230000
#040381:13
#0403b1:00230000
#041381:13230000
#046351:0000000000130000
#046331:00000000000000000000003300000000
#046321:00000023
#047381:0013000000000000
#0473a1:00000033000000000000000000000000
#0473b1:00230000
#048351:13
#048321:00230000
#0533b1:00000013
#0533a1:00000000000000000000000000330000
#053391:0000000000000033
#053381:00000000000000000000000000000033
#054371:23
#0553b1:0013
#0553a1:00000000000000000033000000000033
#055391:0000000000330033
#055381:00000000000000000000003333330000
#0563b1:23
#055350:0013
#055340:00000000000000000033000000000033
#055330:0000000000330033
#055320:00000000000000000000003333330000
#056350:23
#0573a0:1434
#057390:00340000000000340034000000000034
#057380:0034003400340034
#057370:00000034003400000000003400340000
#057360:00340034
#0583a0:24
#058340:000000133333333333230000
#058320:000000000000003300330033003300330033000000000000
#061320:1333333323000000
#061330:00330033003300330000000000000000
#0613b1:1333333323000000
#0613a1:00330033003300330000000000000000
#070321:0000000000130000
#070341:00000000000000000000003300000000
#070351:00000023
#0713b1:0013000000000000
#071391:00000033000000000000000000000000
#071381:00230000
#072321:13
#072361:00230000
#083361:13
#083321:00230000
#0833b1:0013
#0833a1:00000000000000000033000000000000
#083391:0000000000330000
#083381:00000000000000000000003300000000
#083371:00000023
#084371:13
#0843b1:00230000
#084321:0013
#084331:00000000000000000033000000000000
#084341:0000000000330000
#084351:00000000000000000000003300000000
#084361:00000023
#085361:13
#085321:00230000
#0853b1:0013
#0853a1:00000000000000000033000000000000
#085391:0000000000330000
#085381:00000000000000000000003300000000
#085371:00000023
#086321:00140000
#086331:00000000003400000000000000000000
#086341:0000003400000000
#086351:00000000000000340000000000000000
#086361:0024
#087371:13
#0873b1:00230000
#087361:0013
#087351:00000000000000000033000000000000
#087341:0000000000330000
#087331:00000000000000000000003300000000
#087321:00000023
#088361:13
#088321:00230000
#088371:0013
#088381:00000000000000000033000000000000
#088391:0000000000330000
#0883a1:00000000000000000000003300000000
#0883b1:00000023
#0893b1:1300000000230000
#0893a1:00330000000000000033000000000000
#089391:0033000033000000
#089381:00000033000000330000000000000000
#089371:0000333300000000
#089321:00000013
#089331:00000000000000000000000000330000
#089341:0000000000000033
#089351:00000000000000000000000000000033
#090361:3333000000000000
#090351:00000033000000000000000000000000
#090341:00330000
#090331:00000000003300000000000000000000
#090321:0000002300000000
#0913a1:14240000
#091381:00340034000000000000000000000000
#091361:0034000000000000
#091321:0000001400240000
#091341:00000000000000340034000000000000
#091361:0034
#0913a1:00000014
#091381:00000000000000000000000000340034
#091361:0000000000000034
#0923a1:24
