This file was generated by Ched 2.7.0.0.
#TITLE ""
#ARTIST ""
#DESIGNER ""
#DIFFICULTY 0
#PLAYLEVEL
#SONGID ""
#WAVE ""
#WAVEOFFSET 0
#JACKET ""
#REQUEST "ticks_per_beat 480"
#00002: 4
#BPM01: 186
#BPM02: 126
#BPM03: 162
#BPM04: 143
#BPM05: 103
#BPM06: 93
#00008: 01
#08008: 06010000
#07908: 00040205
#07808: 00000003
#TIL00: ""
#VOLUME: ""
#HISPEED 00
#MEASUREHS 00
#00617:00000012
#00615:0000000000000000000000000000000000000000000000000000000000000000000000000000000000000000000000000000000000000000001200000000000000000000000000000000000000000000000000000000000000000000000000000000000000000000000000000000000000000000000000000000000000000000
#0061a:00000000000000000012000000000000000000000000000000000000000000000000000000000000000000000000000000000000000000000000000000000000
#00612:00000012
#00518:0000000000000000000000000000000000000000000000000000000000000000000000000000000000000000000000000000000000000000000000000000000000000000000000000012000000000000000000000000000000000000000000000000000000000000000000000000000000000000000000000000000000000000
#0051a:00120000
#00512:0000000000000000000000000000000000000000000000000000000000000000000000000000000000000000000000000000000000000000000000000000000000000000000000000012000000000000000000000000000000000000000000000000000000000000000000000000000000000000000000000000000000000000
#00514:00120000
#00516:0000000000000012
#00416:000000000000000000000000000000000000000000000000000000000000000000000000000000000000000000000000000000000000000000000000000000000000000000000000000000000000000000000000000000000000000000000000000000000000000000000000000000000000000000000000000000000000000000000000000000000000000000000000000000000000000000000000000000000000000000000000000000000000000000000000000000000000000000000000000000000000000000000000000000000000000000000000000000000000000000000000000000000000000000000000000000000000000000000000000000000000000000000000000000000000000000000000000000000000000000000000000000000000000000000000000000000000000000000000000000000000000000000000000000000000000000000000000000000000000000000000000000000000000000000000001200000000000000000000000000000000000000000000
#0041b:00000000000000000000000000000000000000120000000000000000000000000000000000000000000000000000000000000000000000000000000000000000
#0041c:000000000000000000000000000000000000000000000000000000000000000000000000000000000000000000000000000000000000000000000000000000000000000000000000000000000000000000000000000000000000000000000000000000000000000000000000000000000000000000000000000000000000000000000000000000000000000000000000000000000000000000000000000000000000000000000000000000000000000000000000000000000000000000000000000000000000000000000000000000000000000000000000000000000000000000000000000000000000000000000000000000000000000000000000000000000000000000000000000000000000000000000000000000000000000000000000000000000000000000000000000000000000000000000000000000000000000000000000000000000000000000000000000000000000000000000000000000000000000000000000001200000000000000000000000000000000000000000000
#00316:0000000000000000000000120000000000000000000000000000000000000000000000000000000000000000000000000000000000000000000000000000000000000000000000000000000000000000000000000000000000000000000000000000000000000000000000000000000000000000000000000000000000000000
#00219:00000000000000000000000000120000
#00217:0000000000000000000000000000000000120000000000000000000000000000
#00119:00000000000000000000000000000000000000000000000000000000000000000000000000000000000000000000000000000000000000000000000000120000
#00117:00000000000000000000000000000000000000000000000000000000000000000000000000000000000000120000000000000000000000000000000000000000
#00115:0000000000000000000000000000000000000000000000000000000000000000000000000000000000000000000000000012000000000000000000000000000000000000000000000000000000000000000000000000000000000000000000000000000000000000000000000000000000000000000000000000000000000000
#00114:00000000000000000000000000000000000000000000000000000000000000000000000000000000000000000000000000000000000000000000000000120000
#00012:00000000000000000000000000120000
#00015:00000000000000000000000000000000000000000000000000000000000000000012000000000000000000000000000000000000000000000000000000000000
#00013:0000000000000012000000000000000000000000000000000000000000000000
#00017:00000000000000000000000000120000
#00717:00000000000000000000000000000000000000000000000000000000000000000000000000000000000000000000000000120000000000000000000000000000
#0101b:0000130013001313
#01017:0000001300000000
#01015:00000000000000000016130000000000
#01012:2424000013001300
#01018:00000000000000000000001300000000
#01016:0000000000000013
#0101a:2424000000000000
#01317:0013
#0131b:00000013
#01312:0000001613000000
#01316:00000013
#01318:16002613000000000000000000000000
#01315:00000000161300000000000000000000
#0291b:0023000013130000
#02912:0023000013130000
#02918:00130000000013000000000000130013
#02915:00130000130000000000000013001300
#03018:00130016
#03012:0014001300001600
#03015:16000000001316000000000000000000
#0301b:13
#03016:00001400000000001400141400000000
#0301a:0014
#0301f:11
#03515:13000000000016000000000000130000
#03518:00000013
#03517:00000000000000120000000000000000
#03512:00000000000000001500001300000013
#0351b:0000000000130013
#03519:0015
#03718:1616
#03712:1616
#03916:13000000181400140000000000000000
#03912:1300001813001300
#03918:00000000000000000000001300000000
#03915:00000000000000000000160000001613
#0391b:00000013000000001300000013000000
#03910:41
#04115:00000000000000000000160013000013
#04112:1400180000000013
#04116:1814001418000000
#0411b:00000000000000000000001300000000
#04118:00000000000000000000000000130000
#0431b:00000013
#04316:1300130013131313
#04312:00001300000013000000001300001300
#05412:2400130000000013
#0541b:0013
#05418:00000000000013001300001313000000
#05415:00000000130013000000001313001300
#0541a:24
#05516:13130000
#0551b:0013001300130000
#05515:0000000013001414
#05518:00000000000000000013001300000000
#05512:00000000000000000000000000140000
#05517:00000000000000000000000000000014
#02116:0013
#02112:00000013
#0211c:1212001212000000
#02117:00000013
#02417:1300000000130013
#02412:13001313
#02414:00130000
#02419:0000001300000000
#0241b:0013000013000000
#02514:0000001300000000
#0251b:13001313
#02519:00130000
#02512:1300000000130000
#02516:0013000013000000
#02716:0000001414000000
#02712:14000013
#0271a:00000014000000000000000000000000
#0271b:00000013
#02812:0000001300001300
#02815:00130000
#0281b:0000001300001300
#02818:00130000
#03317:0013
#03319:000000000000001300000000
#0331b:000000000000000013130000
#03316:00000013
#03314:000000000013
#03312:000000000000130000000013
#03816:0000140014000013
#0381b:00000013000000000000130000001300
#03812:2c000000000000130000000013000000
#03815:0016001600000000
#03817:0000000000130000
#0381f:21
#0451b:00000013
#04515:0000000000000013
#04517:00000013
#04518:0000000000000013
#04512:0024002400000000
#04516:28
#0451a:00240000
#0561c:0000000000000012
#0561a:14
#05815:000000000000000000160000000000000000000013000000000000000000000013000000000000000000130000000000
#0581b:000000000000000000130000000000000013000000001300
#05812:2c0000000000000000000000000000000000130000000013
#05818:000000000000000000000000000000000000000000001300000000000000130000000000000000130000000000000000
#05918:13000000000000000013000000130000
#05917:00000000001200000000000000000000
#05912:0000001500190000
#05919:0013150000000000
#05914:0013000000000000
#05915:00000000000000001600001316001913
#04617:0013000013130013
#04618:0000001300000000
#0461b:0013000013130000
#04615:0000001300000000
#04616:13230000
#04612:1300230000001313
#05712:000000130000000000000000000000000000000000000000260000001600000016000000160000001600000016000000
#05718:000000000000130000000000230000000000000000130000000016000000160000001600000016000000160000001600
#05715:23000013000013000000000000000000
#0571b:00000000001300000000000000000000
#08912:00001c14180018001c00000000141c00
#08916:18140000000000140000180018000014
#08916:0000000000180000
#0891a:00000000000000000014000000000000
#09112:2c131c001c002c001c001c002c161c00
#09118:00000013000000000000000000000016
#0911a:00000000000000140000000000000000
#09114:00000000000000000014000000000000
#05316:00000000000000000000141414141414
#0531a:0024002400000000
#05312:28240000
#06015:00001300000000130000130000000013
#06018:00000013000013000000001300001300
#06012:13231323
#0601b:23132313
#04012:130013001c131c00
#04015:00000000000013000000001300001300
#0401b:13000000001300000000000000130000
#04018:00000000000000130013000000000013
#04016:0013000000000000
#03112:0013
#0311b:0013
#03118:0000000000001313
#03115:00000000000000000000000000130013
#0221b:1300000000130013
#02212:00130013
#02217:0013000013000000
#02219:0000001300000000
#02214:0013
#02215:23
#02312:13130000
#0231b:00130013
#02317:13
#02319:0013000000000000
#02316:0000001300001300
#02314:0000000000000013
#02318:0013
#02310:41
#0261a:1400000000000014
#02616:2400001414000014
#02612:00000014000000000000000000000000
#0831b:0013000000001300
#08316:0000001300000000
#08318:00000000000000000013160000000000
#08315:00000000000000000000001600000000
#08312:2c00000019001313
#08616:1300001400000000
#0861b:13
#08617:0013000000000000
#08612:0013000014001c00
#0861a:00140000
#08614:00000000000000140000000000000000
#08618:00000000001400000000000000000013
#08615:00000000000000000000000000131600
#03612:1c001c131c001c001c001c131c001c00
#03618:00130000000000000013000000000000
#0361b:00000000001300000000000000130000
#03615:00000000000000130000000000000013
#06117:1200120012001200120012001200120012001200120012001200003300000000
#0611a:0000000000000000000000000000000000000000000000000033000000000000
#06118:00000000000000000000000000330000
#06115:0000000000000033
#06114:0000000000000000000000000000000000000000000000000000000000333300
#06113:0000000000000000000000000000000000000000000000000000000000000033
#0821a:0014140000000000
#08216:2814001400000000
#08212:1400281426001c00
#08215:00000000000000000000000000001613
#08218:00000000000000002600000000130000
#01216:0014000014000000
#0121a:0000142400000000
#01214:00140000000000000014000000000000
#01218:00000014000000140000000000000013
#01212:2400000000142600
#01215:00000000000000000000000000131600
#09012:180018001c00000000001c1c00131c1c
#09012:18
#09018:00000013
#09016:00000000001418000000000000000000
#0901a:00000014000000000000000000000000
#0901b:0013
#09015:00000000000000000013000000000000
#03412:1313
#03417:0013000000130000
#0341b:00130013
#03416:0000001300000013
#03418:13
#01112:2424130013001313
#01118:0000000000130000
#0111b:00001313
#01115:00000000000000000016001300000000
#01117:0000000000000013
#01116:0000001300000000
#0111a:2424000000000000
#00915:00000000000000000000000016161616
#04212:2c000013000000000000130000001300
#0421b:00000000000000130000000013000000
#04216:0000140014130000
#04217:0000000000000013
#04215:0016001600000000
#04715:00000000000000000000161300001600
#04718:00000000000000000000000000000013
#0471b:13001313
#04712:00000013180000001300000013000000
#04717:13
#04716:00000000001418140000000000000000
#0481b:1300130000130000
#04812:13000000001300001c0000001c130000
#04818:00000000000013000000001300001300
#04815:00000000000000130013000000000013
#04817:0013000000000000
#04918:26000000260000002600000013000013
#0491b:0000000000000013
#04915:00000000000000000000160000130000
#04912:2600000026001c002600001300000000
#04910:41
#05012:2c13000013000000
#05017:0000000000130000
#05018:0013
#05015:00000016130000160000000000001200
#0501b:0000131300000000
#06216:00120000
#06212:2312
#06217:00000012
#06210:41
#06313:12
#06318:00120012
#06314:0012
#06417:00120000
#0641b:0012
#06416:00000012
#0641c:12
#06512:26001c0026001c002600001300000000
#06518:26000000260000002600000013000013
#0651b:0000000000000013
#06515:00000000000000000000130000130000
#05117:1300000013000013
#05112:00130013
#0511b:0013
#05115:0012001200000000
#0441a:0000001400140000
#04416:14000014140000141400001414000014
#04412:0014000000000014
#06717:1300130013131313
#0671b:00001300000013000000001300001300
#06712:00000013
#0661b:0000000000000013
#06617:0000000000000013
#06616:0000140014140000
#0661a:0014000000140000
#06612:2c00001400001400
#06912:2400282426001400
#06918:000000000000000000000000260000000012000000130000
#0691a:0024240000140000
#06915:0000000000000013
#06916:280012
#07016:0013000013140000
#07015:0000001300000000
#07012:0013000013140013
#07018:0000001300000000
#07017:1300230000000013
#0701b:13230000
#0701a:00000014
#07115:00000000160016001300160000001613
#07118:00000000000000001300001300000000
#07117:13
#07112:00000013000000130000000013000000
#0711b:13000000001300000000000013000000
#07110:41
#07212:1300190000131900
#07215:00000000000013001900001300001300
#0721b:13000000001300000000000000130000
#07218:00000000000000130013000000000013
#07216:0013000000000000
#07315:00000000000000000000160013000013
#07312:2600261c26000013
#0731b:00000000000000000000001300000000
#07318:26000000260000002600000000130000
#0741b:0013000013000000
#07416:0000000000130000
#07415:00000016000000161300000000000000
#07412:2c00131300130000
#07418:00130000
#07419:0000000000000012
#07714:00000012
#07716:00000000280000000000001200120000
#07718:0000000026120012
#0771a:24000000000024000000000000000012
#07712:2824240026000000
#0781a:00120000
#07818:00000000001200000000000000000000
#07816:0000001228000000
#07814:00000000000000120000000000000000
#07812:280000000000000022001c1c1c1c1c1c
#0781c:22
#08015:0013
#0801b:00000013
#08018:0023
#08012:00000023
#08412:1c13000000161300
#08417:0000001300000000
#08415:00000000000000001913001600000000
#0841b:0000000000001313
#0851b:0013000000001300
#08516:0000001300000000
#08512:1c00000019001313
#08518:00000000000000000013160000000000
#08515:00000000000000000000001600000000
#08712:26000000000013000000001613000000
#08717:0013000000000000
#08715:0000000013161300
#08718:26000000000000000016000000000000
#0871b:0013
#0881b:0000001300001300
#08816:0013000000000000
#08812:16000000000000001316000000000000
#08818:16000000000000001300001613000000
#08815:0000000000160000
#07517:0000000000131313
#0751b:00000000130000000000001300001300
#07512:00001313
#07516:1313
#07519:0012001200000000
#01412:2212001212120012
#01416:13
#01418:0000001300000000
#0141b:0013
#01419:0000000000000013
#01410:41
#01512:1212001212120012
#01516:13
#01518:0000001300000000
#01515:0013
#0151b:00000013
#01519:0000000000000013
#01617:13
#01615:0000001300000000
#01612:0013
#01614:0000000000000013
#0161c:1212001212120012
#01717:13
#01715:0000001300000000
#01718:0013
#0171c:1212001212120012
#01816:1300000013000013
#0181b:00000013000000000000000000000000
#01812:1212001212120012
#01919:00000013
#01912:1212001212120012
#0191b:13
#01916:00000013000000001300000000000000
#02017:1300001300000013
#02012:00000013
#0201c:1212001212120012
#07912:1515141413131212
#07919:1515000000000000
#0791a:0000141400000000
#0791b:0000000013130000
#0791c:0000000000001212
#09212:1c24282400000000
#09216:0028002800000000
#0921a:00240000
#06812:14180000000000181418000000000018
#06816:00001418001814000000141800181400
#0681a:00140014
#07612:00141800000000000014180000000000
#07616:14000014140018141400001414001814
#0761a:00000000001400000000000000140000
#03215:1600131600000000
#0321b:0000001300000000
#03218:00000000001300000000000016000000
#03212:13001416
#03216:00001400000000001400141400000000
#0321a:0014000000000000
#05212:0000001400140000
#05216:14000014140000141400001414000014
#0521a:0014000000000014
#08118:00130000000000130013000000000013
#08112:191c231c191c231c
#08115:00000013191300000000001319130000
#0811b:2323
#00757:00000000000000000000000000000000000000000000000000000000000000000000000000000000000000000000000000220000000000000000000000000000
#03052:0000003300003600
#03055:3600004600000000
#0305b:43
#03058:00000046
#03758:4666
#03752:3656
#03952:2333
#0395b:0043
#02756:0000006434000000
#02752:64000063
#0275a:00000024000000000000000000000000
#0275b:00000053
#03856:00344400
#03852:4c
#04657:0023000043000000
#0465b:0023000043000000
#04656:63330000
#04652:63330000
#04156:4848
#04152:00380000
#08952:00380000
#08956:0000000000480000
#08956:0000000000480000
#09152:4c003c3c004c4c00
#0225b:5300000000230000
#02252:00130013
#02257:0023000063000000
#0235b:00130013
#02352:00630000
#02356:0000002300000000
#02454:00130000
#02452:00000013
#02457:6300000000230000
#0245b:0023000053000000
#02559:00130000
#0255b:00000013
#02552:6300000000230000
#02556:0023000053000000
#0265a:5400000000000024
#02656:0000005444000000
#02652:00000024000000000000000000000000
#06052:3333
#0605b:00430043
#0825a:00440000
#08252:3436
#08258:0046
#0125a:00440000
#01252:0000000000340000
#01358:46
#01352:0000003600000000
#03452:6363
#03457:0023000000230000
#0345b:00530053
#03456:0000002300000023
#04356:33333300
#04352:0043004300000000
#0435b:0033
#0405b:63
#04056:0023000000000000
#04852:53
#04857:0023000000000000
#05052:4c005333
#05057:0000000000230000
#05058:0043
#0565a:64
#05157:3333
#05152:00330000
#04456:34444434
#06757:43434300
#0675b:0033003300000000
#06752:0043
#07056:0023000033000000
#07052:0023000033000000
#07057:53430000
#0705b:53430000
#07158:0043
#07155:0033
#0715b:23
#0725b:63
#07256:0023000000000000
#0745b:00006343
#07456:0000000000230000
#07455:0033
#07452:3c
#08055:0033
#0805b:00000043
#0835b:00000023
#08352:0000000000000033
#08355:0000000000000033
#08752:00000023
#08755:00000023
#0875b:0000000000000043
#08758:0000000000000043
#01456:53
#0145b:0053
#01556:53
#01657:53
#01652:0053
#01757:53
#01856:53
#0185b:00000023000000000000000000000000
#02057:53
#02955:00230000000000000000000000000000
#02958:00230000000000000000000000000000
#02952:0033000000000000
#0295b:0043000000000000
#0195b:63
#01956:00000023000000000000000000000000
#0475b:2343
#04752:0033
#0885b:00000023
#08858:00000023
#08852:0000000000000033
#08855:0000000000000033
#09252:3c00383400000000
#09256:0048004800000000
#04256:00443400
#04252:3c
#07556:4343
#0755b:00430000
#06656:00443400
#06652:4c
#06852:3434
#0685a:00440044
#07656:44344434
#08452:00000023
#0845b:0000000000000043
#08458:0000000000000043
#0855b:00000023
#08552:0000000000000033
#08555:0000000000000033
#0325b:0000004300000000
#03255:4600003600000000
#03252:33000036
#03258:00000046
#05256:44343444
#08152:1919
#08155:00190019
#09052:38
#09052:38
#09056:0000004800000000
#0785c:42
#07852:3832
#07856:0048
#06558:0046
#06552:0036
#05852:3c
#06252:43
#04958:36463600
#04952:36463600
#07352:46364600
#07358:46364600
#06952:0036
#06958:0046
#07758:0046
#07752:0036
#05352:0036
#05358:0046
#04558:0046
#04552:0036
#0033b0:0000000000000000000000120000000000000000000000000000000000000000000000000000000000000000000000000022000000000000000000000000000000000000000000000000000000000000000000000000000000000000000000000000000000000000000000000000000000000000000000000000000000000000
#003361:0000000000000000000000000000000000000000000000000000000000000000000000000000000000000000000000000012000000000000000000000000000000000000000000000000000000000000000000002200000000000000000000000000000000000000000000000000000000000000000000000000000000000000
#003380:00000000000000000000000000000000000000000000000000000000000000000000000000000000000012000000000000000000000000000000000000220000
#003331:00000000000000000000000000000000000000000000000000000000000000000000000000000000000000000000000000000000000000000000000000120000
#004331:00000000000000000000000000000000000000220000000000000000000000000000000000000000000000000000000000000000000000000000000000000000
#007361:000000000000000000000000000000000000000000000000000000000000000000000000000000000000000000000000000000000000000000000000000000000000000000000000000000000000000000000000000000000000000000000000000000000012000000000000000000000000000000000000000000000000000000000000000000000000000000000000000000000000000000000000000000000000000000000000000000000000000000000000000000000000000000000000000000000000000000000000000000000000000000000000000000000000000000000000000000000000000000000000000000000000000000000000000000000000000000000000000000000000000000000000000000000000000000000000000000000000000000000000000000000000000000000000000000000000000000000000000000000000000000000000000000000000000000000000000000000000000000000000000000000000000000000000000000000000000000000000
#007341:0000000000000000000000000000000000000000000000000000000000000000000000000000000000000032000000000000000000000000000000000000000000000000000000000000000000000000000000000000000000000000000000000000000000000000000000000000000000000000000000000000000000000000
#007321:00000000000000000000000000000000000000000000000000000022000000000000000000000000000000000000000000000000000000000000000000000000
#0073c0:000000000000000000000000000000000000000000000000000000000000000000000000000000000000000000000000000000000000000000000000000000000000000000000000000000000000000000000000000000000000000000000000000000000012000000000000000000000000000000000000000000000000000000000000000000000000000000000000000000000000000000000000000000000000000000000000000000000000000000000000000000000000000000000000000000000000000000000000000000000000000000000000000000000000000000000000000000000000000000000000000000000000000000000000000000000000000000000000000000000000000000000000000000000000000000000000000000000000000000000000000000000000000000000000000000000000000000000000000000000000000000000000000000000000000000000000000000000000000000000000000000000000000000000000000000000000000000000000
#0073a0:0000000000000000000000000000000000000000000000000000000000000000000000000000000000000032000000000000000000000000000000000000000000000000000000000000000000000000000000000000000000000000000000000000000000000000000000000000000000000000000000000000000000000000
#007380:00000000000000000000000000000000000000000000000000000022000000000000000000000000000000000000000000000000000000000000000000000000
#007370:00000000000000000000000000000000000000000000000000000000000000000000000000000000000000000000000000120000000000000000000000000000
#009330:000000000000002a0000000000000000
#010370:00130000
#010320:0000002300000000
#011360:00130000
#0113b0:0000002300000000
#014360:13
#0143b0:00230000
#0143b0:0013
#014360:00000023
#015360:13
#0153b0:00230000
#016370:13
#016320:00230000
#016320:0013
#016370:00000023
#017370:13
#017320:00230000
#018360:1300002300000000
#0183b0:00000053000000000000000000000000
#0193b0:1300002300000000
#019360:00000053000000000000000000000000
#020370:13
#020320:00230000
#0223b0:13230000
#022370:0053000000000000
#022370:00001323
#0223b0:0000000000530000
#023320:00132300
#023360:0000005300000000
#024370:13230000
#0243b0:0053000000000000
#0243b0:00001323
#024370:0000000000530000
#025320:13230000
#025360:0053000000000000
#025360:00001323
#025320:0000000000530000
#0263a0:1400002400000000
#026320:00000054000000000000000000000000
#026361:0000001400000000
#026321:0024
#0263a1:0000000000000014
#027361:24
#027320:1400002400000000
#0273a0:00000054000000000000000000000000
#027361:0000001400000000
#0273a1:0024
#027321:00000013
#027351:0000000000000053
#028351:23
#0273b0:00000013
#027380:0000000000000053
#028380:23
#028350:0000000000000013
#029350:00530000000000000000000000000000
#029320:0023000000000000
#028381:0000000000000013
#029381:00530000000000000000000000000000
#0293b1:0023000000000000
#034321:13230000
#034371:0053000000000000
#0343b0:00132300
#034360:0000005300000000
#034321:00001323
#034371:0000000000530000
#0343b0:00000013
#034360:0000000000000053
#0353b0:23
#037320:0016
#037360:00000022
#037381:00001622
#038371:00000000000000000000001323000000
#039321:13
#039361:00000023000000000000000000000000
#0403b1:13230000
#040361:0053000000000000
#0413a1:00000014240000000000000000000000
#041321:00000000000000142400000000000000
#042361:00000000000000000000001323000000
#0433b1:13000053330000532300000000000000
#043361:00533300005333000000000000000000
#0443a1:14
#044361:0024000000000000
#044321:00140000
#044361:0000002400000000
#044321:0014
#044361:0000000000240000
#0443a1:00000014
#044361:0000000000000024
#045361:180000000000000000000000000000000000000000000000000000000000000000000000000000000000000000000000000000000000000000000000000000000000000000000000000000000000000000000000000000000000000000000000000000000000000000000000000000000000000000000000000000000000000000000000000000000000000000000000000000000000000000000000000000000000000000000000000000000000000000000000000000000000000000000000000000000000000000000000000000000000000000000000000000000000000000000000000000000000000000000058000000000000000000000000000000000000000000000000000000000000000000000000000000000000000000000000000000000000000000000000000000000000000000000000000000000000000000000000000000000000000000000000000000000000000000000000000000000000000000000000000000000000000000000000000000000000000000000000000000000000000000000000000000000000000000000000000000000000000000000000000000000000000000000000000000000000000000000000000000000000000000000000000000000000000000000000000000000000000000000000000000000000000000000000000000000000000000000000000000000000000000000000000000000000000000000000000000000000000000000000000000000000000000000000000000000000000000000000000000000000000000000000000000000000000000000000000000000000000000000000000000000000000000000000000000000000000000000000000000000000000000000000000000000000000000000000000000000000000000000000000000000000000000000000000000000000000000000000000000000000000000000000000000000000000000000000000000000000000000000000000000000000000000000000000000000000000000000000000000000000000000000000000000000000000000000000000000000000000000000000000000000000000000000000000000000000000000000000000000000000000000000000000000000000000000000000000000000000000000000000000000000000000000000000000000000000000000000000000000000000000000000000000000000000000000000000000000000000000000000000000000000000000000000000000000000000000000000000000000000000000000000000000000000000000000000000000000000000000000000000000000000000000000000000000000000000000000000000000000000000000000000000000000000000000000000000000000000000000000000000000000000000000000000000000000000000000000000000000000000000000000000000000000000000000000000000000000000000000000000000000000000000000000000000000000000000000000000000000000000000000000000000000000000000000000000000000000000000000000000000000000000000000000000000000000000000000000000000000000000000000000000000000000000000000000000000000000000000000000000000000000000000000000000000000000000000000000000000000000000000000000000000000000000000000000000000000000000000000000000000000000000000000000000000000000000000000000000000000000000000000000000000000000000000000000000000000000000000000000000000000000000000000000000000000000000000000000000000000000000000000000000000000000000000000000000000000000000000000000000000000000000000000000000000000000000000000000000000000000000000000000000000000000000000000000000000000000000000000000000000000000000000000000000000000000000000000000000000000000000000000000000000000000000000000000000000000000000000000000000000000000000000000000000000000000000000000000000000000000000000000000000000000000000000000000000000000000000000000000000000000000000000000000000000000000000000000000000000000000000000000000000000000000000000000000000000000000000000000000000000000000000000000000000000000000000000000000000000000000000000000000000000000000000000000000000000000000000000000000000000000000000000000000000000000000000000000000000000000000000000000000000000000000000000000000000000000000000000000000000000000000000000000000000000000000000000000000000000000000000000000000000000000000000000000000000000000000000000000000000000000000000000000000000000000000000000000000000000000000000000000000000000000000000000000000000000000000000000000000000000000000000000000000000000000000000000000000000000000000000000000000000000000000000000000000000000000000000000000000000000
#0453a1:0024000000000000
#045320:000000000000000000000000000000000000000000000000000000000000000000000000000000000000000000000000000000000000000000000000000000000000000000000000000000000000000000000000000000000000000000000000000000000000000000000000000000000000000000000000000000000000000000000000000000000000000000000000000000000000000000000000000000000000000000000000000000000000000000000000000000000000000000000000000000000000000000000000000000000000000000000000000000000000000000000000000000000000000000000000145800000000000000000000000000000000000000000000000000000000000000000000000000000000000000000000000000000000000000000000000000000000000000000000000000000000000000000000000000000000000000000000000000000000000000000000000000000000000000000000000000000000000000000000000000000000000000000000000000000000000000000000000000000000000000000000000000000000000000000000000000000000000000000000000000000000000000000000000000000000000000000000000000000000000000000000000000000000000000000058240000000000000000000000000000000000000000000000000000000000000000000000000000000000000000000000000000000000000000000000000000000000000000000000000000000000000000000000000000000000000000000000000000000000000000000000000000000000000000000000000000000000000000000000000000000000000000000000000000000000000000000000000000000000000000000000000000000000000000000000000000000000000000000000000000000000000000000000000000000000000000000000000000000000000000000000000000000000000000000000000000000000000000000000000000000000000000000000000000000000000000000000000000000000000000000000000000000000000000000000000000000000000000000000000000000000000000000000000000000000000000000000000000000000000000000000000000000000000000000000000000000000000000000000000000000000000000000000000000000000000000000000000000000000000000000000000000000000000000000000000000000000000000000000000000000000000000000000000000000000000000000000000000000000000000000000000000000000000000000000000000000000000000000000000000000000000000000000000000000000000000000000000000000000000000000000000000000000000000000000000000000000000000000000000000000000000000000000000000000000000000000000000000000000000000000000000000000000000000000000000000000000000000000000000000000000000000000000000000000000000000000000000000000000000000000000000000000000000000000000000000000000000000000000000000000000000000000000000000000000000000000000000000000000000000000000000000000000000000000000000000000000000000000000000000000000000000000000000000000000000000000000000000000000000000000000000000000000000000000000000000000000000000000000000000000000000000000000000000000000000000000000000000000000000000000000000000000000000000000000000000000000000000000000000000000000000000000000000000000000000000000000000000000000000000000000000000000000000000000000000000000000000000000000000000000000000000000000000000000000000000000000000000000000000000000000000000000000000000000000000000000000000000000000000000000000000000000000000000000000000000000000000000000000000000000000000000000000000000000000000000000000000000000000000000000000000000000000000000000000000000000000000000000000000000000000000000000000000000000000000000000000000000000000000000000000000000000000000000000000000000000000000000000000000000000000000000000000000000000000000000000000000000000000000000000000000000000000000000000000000000000000000000000000000000000000000000000000000000000000000000000000000000000000000000000000000000000000000000000000000000000000000000000000000000000000000000000000000000000000000000000000000000000000000000000000000000000000000000000000000000000000000000000000000000000000000000000000000000000000000000000000000000000000000000000000000000000000000000000000000000000000000000000000000000000000000000000000000000000000000000000000000000000000000000000000000000000000000000000000000000000000000000000000000000000000000000000000000000000000
#0453a1:00140000
#045361:000000000000000000000000000000000000000000000000000000000000000000000000000000000000000000000000000000000000000000000000000000000000000000000000000000000000000000000000000000000000000000000000000000000000000000000000000000000000000000000000000000000000000000000000000000000000000000000000000000000000000000000000000000000000000000000000000000000000000000000000000000000000000000000000000000000000000000000000000000000000000000000000000000000000000000000000000000000000000000000000000000000000000000000000000000000000000000000000000000000000000000000000000000000000000000000000000000000000000000000000000000000000000000000000000000000000000000000000000000000000000000000000000000000000000000000000000000000000000000000000000000000000000000000000000000000000000000000000000000000000000000000000000000000000000000000000000000000000000000000000000000000000000000000000000000000000000000000000000000000000000000000000000000000000000000000000000000000000000000000000005800000000000000000000000000000000000000000000000000000000000000000000000000000000000000000000000000000000000000000000000000000000000000000000000000000000000000000000000000000000000000000000000000000000000000000000000000000000000000000000000000000000000000000000000000000000000000000000000000000000000000000000000000000000000000000000000000000000000000000000000000000000000000000000000000000000000000000000000000000000000000000000000000000000000000000000000000000000000000000058000000000000000000000000000000000000000000000000000000000000000000000000000000000000000000000000000000000000000000000000000000000000000000000000000000000000000000000000000000000000000000000000000000000000000000000000000000000000000000000000000000000000000000000000000000000000000000000000000000000000000000000000000000000000000000000000000000000000000000000000000000000000000000000000000000000000000000000000000000000000000000000000000000000000000000000000000000000000000000000000000000000000000000000000000000000000000000000000000000000000000000000000000000000000000000000000000000000000000000000000000000000000000000000000000000000000000000000000000000000000000000000000000000000000000000000000000000000000000000000000000000000000000000000000000000000000000000000000000000000000000000000000000000000000000000000000000000000000000000000000000000000000000000000000000000000000000000000000000000000000000000000000000000000000000000000000000000000000000000000000000000000000000000000000000000000000000000000000000000000000000000000000000000000000000000000000000000000000000000000000000000000000000000000000000000000000000000000000000000000000000000000000000000000000000000000000000000000000000000000000000000000000000000000000000000000000000000000000000000000000000000000000000000000000000000000000000000000000000000000000000000000000000000000000000000000000000000000000000000000000000000000000000000000000000000000000000000000000000000000000000000000000000000000000000000000000000000000000000000000000000000000000000000000000000000000000000000000000000000000000000000000000000000000000000000000000000000000000000000000000000000000000000000000000000000000000000000000000000000000000000000000000000000000000000000000000000000000000000000000000000000000000000000000000000000000000000000000000000000000000000000000000000000000000000000000000000000000000000000000000000000000000000000000000000000000000000000000000000000000000000000000000000000000000000000000000000000000000000000000000000000000000000000000000000000000000000000000000000000000000000000000000000000000000000000000000000000000000000000000000000000000000000000000000000000000000000000000000000000000000000000000000000000000000000000000000000000000000000000000000000000000000000000000000000000000000000000000000000000000000000000000000000000000000000000000000000000000000000000000000000000000000000000000000000000000000000000000000000000000000
#045381:0000005626000000
#045320:000000000000000000000000000000000000000000000000000000000000000000000000000000000000000000000000000000000000000000000000000000000000000000000000000000000000000000000000000000000000000000000000000000000000000000000000000000000000000000000000000000000000000000000000000000000000000000000000000000000000000000000000000000000000000000000000000000000000000000000000000000000000000000000000000000000000000000000000000000000000000000000000000000000000000000000000000000000000000000000000000000000000000000000000000000000000000000000000000000000000000000000000000000000000000000000000000000000000000000000000000000000000000000000000000000000000000000000000000000000000000000000000000000000000000000000000000000000000000000000000000000000000000000000000000000000000000000000000000000000000000000000000000000000000000000000000000000000000000000000000000000000000000000000000000000000000000000000000000000000000000000000000000000000000000000000000000000000000000000000000000000000000000000000000000000000000000000000000000000000000000000000000000000000000000000000000000000000000000000000000000000000000000000000000000000000000000000000000000000000000000000000000000000000000000000000000000000000000000000000000000000000000000000000000000000000000000000000000000000000000000000000000000000000000000000000000000000000000000000000000000000000000000000000000000000000000000000000000000000000000000000000000000000000000000000000000000000000000000000000000145600000000000000000000000000000000000000000000000000000000000000000000000000000000000000000000000000000000000000000000000000000000000000000000000000000000000000000000000000000000000000000000000000000000000000000000000000000000000000000000000000000000000000000000000000000000000000000000000000000000000000000000000000000000000000000000000000000000000000000000000000000000000000000000000000000000000000000000000000000000000000000000000000000000000000000000000000000000000000000000260000000000000000000000000000000000000000000000000000000000000000000000000000000000000000000000000000000000000000000000000000000000000000000000000000000000000000000000000000000000000000000000000000000000000000000000000000000000000000000000000000000000000000000000000000000000000000000000000000000000000000000000000000000000000000000000000000000000000000000000000000000000000000000000000000000000000000000000000000000000000000000000000000000000000000000000000000000000000000000000000000000000000000000000000000000000000000000000000000000000000000000000000000000000000000000000000000000000000000000000000000000000000000000000000000000000000000000000000000000000000000000000000000000000000000000000000000000000000000000000000000000000000000000000000000000000000000000000000000000000000000000000000000000000000000000000000000000000000000000000000000000000000000000000000000000000000000000000000000000000000000000000000000000000000000000000000000000000000000000000000000000000000000000000000000000000000000000000000000000000000000000000000000000000000000000000000000000000000000000000000000000000000000000000000000000000000000000000000000000000000000000000000000000000000000000000000000000000000000000000000000000000000000000000000000000000000000000000000000000000000000000000000000000000000000000000000000000000000000000000000000000000000000000000000000000000000000000000000000000000000000000000000000000000000000000000000000000000000000000000000000000000000000000000000000000000000000000000000000000000000000000000000000000000000000000000000000000000000000000000000000000000000000000000000000000000000000000000000000000000000000000000000000000000000000000000000000000000000000000000000000000000000000000000000000000000000000000000000000000000000000000000000000000000000000000000000000000000000000000000000000000000000000000000000000000000000000000000000000000000000000000000000000000000000000000000000000000000000000000000
#046360:13230000
#0463b0:0053000000000000
#046321:13230000
#046371:0053000000000000
#046371:00000000000000000000001323000000
#0473b1:13
#047371:00000023000000000000000000000000
#048321:13230000
#048371:0053000000000000
#050321:00001323
#050371:0000000000530000
#0503b0:00000013
#050370:0000000000000023
#0513b0:13
#051370:0023000000000000
#0513b0:00130000
#051370:0000002300000000
#051370:00000013
#0513b0:0000000000000023
#052320:14
#052360:0024000000000000
#0523a0:00140000
#052360:0000002400000000
#0523a0:0014
#052360:0000000000240000
#052320:00000014
#052360:0000000000000024
#053320:180000000000000000000000000000000000000000000000000000000000000000000000000000000000000000000000000000000000000000000000000000000000000000000000000000000000000000000000000000000000000000000000000000000000000000000000000000000000000000000000000000000000000000000000000000000000000000000000000000000000000000000000000000000000000000000000000000000000000000000000000000000000000000000000000000000000000000000000000000000000000000000000000000000000000000000000000000000000000000000058240000000000000000000000000000000000000000000000000000000000000000000000000000000000000000000000000000000000000000000000000000000000000000000000000000000000000000000000000000000000000000000000000000000000000000000000000000000000000000000000000000000000000000000000000000000000000000000000000000000000000000000000000000000000000000000000000000000000000000000000000000000000000000000000000000000000000000000000000000000000000000000000000000000000000000000000000000000000000000000000000000000000000000000000000000000000000000000000000000000000000000000000000000000000000000000000000000000000000000000000000000000000000000000000000000000000000000000000000000000000000000000000000000000000000000000000000000000000000000000000000000000000000000000000000000000000000000000000000000000000000000000000000000000000000000000000000000000000000000000000000000000000000000000000000000000000000000000000000000000000000000000000000000000000000000000000000000000000000000000000000000000000000000000000000000000000000000000000000000000000000000000000000000000000000000000000000000000000000000000000000000000000000000000000000000000000000000000000000000000000000000000000000000000000000000000000000000000000000000000000000000000000000000000000000000000000000000000000000000000000000000000000000000000000000000000000000000000000000000000000000000000000000000000000000000000000000000000000000000000000000000000000000000000000000000000000000000000000000000000000000000000000000000000000000000000000000000000000000000000000000000000000000000000000000000000000000000000000000000000000000000000000000000000000000000000000000000000000000000000000000000000000000000000000000000000000000000000000000000000000000000000000000000000000000000000000000000000000000000000000000000000000000000000000000000000000000000000000000000000000000000000000000000000000000000000000000000000000000000000000000000000000000000000000000000000000000000000000000000000000000000000000000000000000000000000000000000000000000000000000000000000000000000000000000000000000000000000000000000000000000000000000000000000000000000000000000000000000000000000000000000000000000000000000000000000000000000000000000000000000000000000000000000000000000000000000000000000000000000000000000000000000000000000000000000000000000000000000000000000000000000000000000000000000000000000000000000000000000000000000000000000000000000000000000000000000000000000000000000000000000000000000000000000000000000000000000000000000000000000000000000000000000000000000000000000000000000000000000000000000000000000000000000000000000000000000000000000000000000000000000000000000000000000000000000000000000000000000000000000000000000000000000000000000000000000000000000000000000000000000000000000000000000000000000000000000000000000000000000000000000000000000000000000000000000000000000000000000000000000000000000000000000000000000000000000000000000000000000000000000000000000000000000000000000000000000000000000000000000000000000000000000000000000000000000000000000000000000000000000000000000000000000000000000000000000000000000000000000000000000000000000000000000000000000000000000000000000000000000000000000000000000000000000000000000000000000000000000000000000000000000000000000000000000000000000000000000000000000000000000000000000000000000000000000000000000000000000000000000000000000000000000000000000000000000000000000000000000000000000000
#0533a1:0014240000000000
#053361:000000000000000000000000000000000000000000000000000000000000000000000000000000000000000000000000000000000000000000000000000000000000000000000000000000000000000000000000000000000000000000000000000000000000000000000000000000000000000000000000000000000000000000000000000000000000000000000000000000000000000000000000000000000000000000000000000000000000000000000000000000000000000000000000000000000000000000000000000000000000000000000000000000000000000000000000000000000000000000000000005800000000000000000000000000000000000000000000000000000000000000000000000000000000000000000000000000000000000000000000000000000000000000000000000000000000000000000000000000000000000000000000000000000000000000000000000000000000000000000000000000000000000000000000000000000000000000000000000000000000000000000000000000000000000000000000000000000000000000000000000000000000000000000000000000000000000000000000000000000000000000000000000000000000000000000000000000000000000000000058000000000000000000000000000000000000000000000000000000000000000000000000000000000000000000000000000000000000000000000000000000000000000000000000000000000000000000000000000000000000000000000000000000000000000000000000000000000000000000000000000000000000000000000000000000000000000000000000000000000000000000000000000000000000000000000000000000000000000000000000000000000000000000000000000000000000000000000000000000000000000000000000000000000000000000000000000000000000000000000000000000000000000000000000000000000000000000000000000000000000000000000000000000000000000000000000000000000000000000000000000000000000000000000000000000000000000000000000000000000000000000000000000000000000000000000000000000000000000000000000000000000000000000000000000000000000000000000000000000000000000000000000000000000000000000000000000000000000000000000000000000000000000000000000000000000000000000000000000000000000000000000000000000000000000000000000000000000000000000000000000000000000000000000000000000000000000000000000000000000000000000000000000000000000000000000000000000000000000000000000000000000000000000000000000000000000000000000000000000000000000000000000000000000000000000000000000000000000000000000000000000000000000000000000000000000000000000000000000000000000000000000000000000000000000000000000000000000000000000000000000000000000000000000000000000000000000000000000000000000000000000000000000000000000000000000000000000000000000000000000000000000000000000000000000000000000000000000000000000000000000000000000000000000000000000000000000000000000000000000000000000000000000000000000000000000000000000000000000000000000000000000000000000000000000000000000000000000000000000000000000000000000000000000000000000000000000000000000000000000000000000000000000000000000000000000000000000000000000000000000000000000000000000000000000000000000000000000000000000000000000000000000000000000000000000000000000000000000000000000000000000000000000000000000000000000000000000000000000000000000000000000000000000000000000000000000000000000000000000000000000000000000000000000000000000000000000000000000000000000000000000000000000000000000000000000000000000000000000000000000000000000000000000000000000000000000000000000000000000000000000000000000000000000000000000000000000000000000000000000000000000000000000000000000000000000000000000000000000000000000000000000000000000000000000000000000000000000000000000000000000000000000000000000000000000000000000000000000000000000000000000000000000000000000000000000000000000000000000000000000000000000000000000000000000000000000000000000000000000000000000000000000000000000000000000000000000000000000000000000000000000000000000000000000000000000000000000000000000000000000000000000000000000000000000000000000000000000000000000000000000000000000000000000000000000000000000000000000000000000000000000000000000000000000000000000000000000000000000000000000
#053320:000000000000000000000000000000000000000000000000000000000000000000000000000000000000000000000000000000000000000000000000000000000000000000000000000000000000000000000000000000000000000000000000000000000000000000000000000000000000000000000000000000000000000000000000000000000000000000000000000000000000000000000000000000000000000000000000000000000000000000000000000000000000000000000000000000000000000000000000000000000000000000000000000000000000000000000000000000000000000000000000000000000000000000000000000000000000000000000000000000000000000000000000000000000000000000000000000000000000000000000000000000000000000000000000000000000000000000000000000000000000000000000000000000000000000000000000000000000000000000000000000000000000000000000000000000000000000000000000000000000000000000000000000000000000000000000000000000000000000000000000000000000000000000000000000000000000000000000000000000000000000000000000000000000000000000000000000000000000000000000000145800000000000000000000000000000000000000000000000000000000000000000000000000000000000000000000000000000000000000000000000000000000000000000000000000000000000000000000000000000000000000000000000000000000000000000000000000000000000000000000000000000000000000000000000000000000000000000000000000000000000000000000000000000000000000000000000000000000000000000000000000000000000000000000000000000000000000000000000000000000000000000000000000000000000000000000000000000000000000000058560000000000000000000000000000000000000000000000000000000000000000000000000000000000000000000000000000000000000000000000000000000000000000000000000000000000000000000000000000000000000000000000000000000000000000000000000000000000000000000000000000000000000000000000000000000000000000000000000000000000000000000000000000000000000000000000000000000000000000000000000000000000000000000000000000000000000000000000000000000000000000000000000000000000000000000000000000000000000000000000260000000000000000000000000000000000000000000000000000000000000000000000000000000000000000000000000000000000000000000000000000000000000000000000000000000000000000000000000000000000000000000000000000000000000000000000000000000000000000000000000000000000000000000000000000000000000000000000000000000000000000000000000000000000000000000000000000000000000000000000000000000000000000000000000000000000000000000000000000000000000000000000000000000000000000000000000000000000000000000000000000000000000000000000000000000000000000000000000000000000000000000000000000000000000000000000000000000000000000000000000000000000000000000000000000000000000000000000000000000000000000000000000000000000000000000000000000000000000000000000000000000000000000000000000000000000000000000000000000000000000000000000000000000000000000000000000000000000000000000000000000000000000000000000000000000000000000000000000000000000000000000000000000000000000000000000000000000000000000000000000000000000000000000000000000000000000000000000000000000000000000000000000000000000000000000000000000000000000000000000000000000000000000000000000000000000000000000000000000000000000000000000000000000000000000000000000000000000000000000000000000000000000000000000000000000000000000000000000000000000000000000000000000000000000000000000000000000000000000000000000000000000000000000000000000000000000000000000000000000000000000000000000000000000000000000000000000000000000000000000000000000000000000000000000000000000000000000000000000000000000000000000000000000000000000000000000000000000000000000000000000000000000000000000000000000000000000000000000000000000000000000000000000000000000000000000000000000000000000000000000000000000000000000000000000000000000000000000000000000000000000000000000000000000000000000000000000000000000000000000000000000000000000000000000000000000000000000000000000000000000000000000000000000000000000000000000000000000000000000000
#0533a1:0000001400000000
#053381:000000000000000000000000000000000000000000000000000000000000000000000000000000000000000000000000000000000000000000000000000000000000000000000000000000000000000000000000000000000000000000000000000000000000000000000000000000000000000000000000000000000000000000000000000000000000000000000000000000000000000000000000000000000000000000000000000000000000000000000000000000000000000000000000000000000000000000000000000000000000000000000000000000000000000000000000000000000000000000000000000000000000000000000000000000000000000000000000000000000000000000000000000000000000000000000000000000000000000000000000000000000000000000000000000000000000000000000000000000000000000000000000000000000000000000000000000000000000000000000000000000000000000000000000000000000000000000000000000000000000000000000000000000000000000000000000000000000000000000000000000000000000000000000000000000000000000000000000000000000000000000000000000000000000000000000000000000000000000000000000000000000000000000000000000000000000000000000000000000000000000000000000000000000000000000000000000000000000000000000000000000000000000000000000000000000000000000000000000000000000000000000000000000000000000000000000000000000000000000000000000000000000000000000000000000000000000000000000000000000000000000000000000000000000000000000000000000000000000000000000000000000000000000000000000000000000000000000000000000000000000000000000000000000000000000000000000000000000000000000000005600000000000000000000000000000000000000000000000000000000000000000000000000000000000000000000000000000000000000000000000000000000000000000000000000000000000000000000000000000000000000000000000000000000000000000000000000000000000000000000000000000000000000000000000000000000000000000000000000000000000000000000000000000000000000000000000000000000000000000000000000000000000000000000000000000000000000000000000000000000000000000000000000000000000000000000000000000000000000000000260000000000000000000000000000000000000000000000000000000000000000000000000000000000000000000000000000000000000000000000000000000000000000000000000000000000000000000000000000000000000000000000000000000000000000000000000000000000000000000000000000000000000000000000000000000000000000000000000000000000000000000000000000000000000000000000000000000000000000000000000000000000000000000000000000000000000000000000000000000000000000000000000000000000000000000000000000000000000000000000000000000000000000000000000000000000000000000000000000000000000000000000000000000000000000000000000000000000000000000000000000000000000000000000000000000000000000000000000000000000000000000000000000000000000000000000000000000000000000000000000000000000000000000000000000000000000000000000000000000000000000000000000000000000000000000000000000000000000000000000000000000000000000000000000000000000000000000000000000000000000000000000000000000000000000000000000000000000000000000000000000000000000000000000000000000000000000000000000000000000000000000000000000000000000000000000000000000000000000000000000000000000000000000000000000000000000000000000000000000000000000000000000000000000000000000000000000000000000000000000000000000000000000000000000000000000000000000000000000000000000000000000000000000000000000000000000000000000000000000000000000000000000000000000000000000000000000000000000000000000000000000000000000000000000000000000000000000000000000000000000000000000000000000000000000000000000000000000000000000000000000000000000000000000000000000000000000000000000000000000000000000000000000000000000000000000000000000000000000000000000000000000000000000000000000000000000000000000000000000000000000000000000000000000000000000000000000000000000000000000000000000000000000000000000000000000000000000000000000000000000000000000000000000000000000000000000000000000000000000000000000000000000000000000000000000000000000000000000000000000
#055321:13330000
#055371:0033002300000000
#0563a1:14
#056341:00240000
#056320:0000122200000000
#056381:0000001222000000
#056340:0000000012220000
#0563a1:0000000000122200
#056360:0000000000001222
#0573b0:13
#057380:00230000000000000000000000000000
#057320:00130000
#057350:00000000002300000000000000000000
#058320:000000000000132300000000000000000000000000000000
#058381:000000000000001323000000000000000000000000000000
#058350:000000000000000013230000000000000000000000000000
#058350:000000000000000000000000132300000000000000000000
#0583b1:000000000000000000000000001323000000000000000000
#058320:000000000000000000000000000013230000000000000000
#060380:00132300000000000000000000000000
#060350:00000000001323000000000000000000
#060380:00000000000000000013230000000000
#060350:00000000000000000000000000132300
#0613b0:00000013
#0613a0:0000000000000000000000000000000000000000000000000033000000000000
#061380:00000000000000000000000000330000
#061370:0000000000000000000000000000000000000000000000000000003300000000
#061350:0000000000000033
#061340:0000000000000000000000000000000000000000000000000000000000333300
#061330:0000000000000000000000000000000000000000000000000000000000000033
#062320:23
#0623c0:00000000120032003200323200003200
#0633c0:32000032320032002200000000000000
#063320:0000000000001232
#064320:3200323232323222
#066320:00000014240000000000000000000000
#0663a0:00000000000000142400000000000000
#066360:00000000000000000000001424000000
#067320:13000053330000532300000000000000
#067370:00533300005333000000000000000000
#069320:14
#069360:0024000000000000
#0693a0:00140000
#069360:0000002400000000
#070370:13230000
#070320:0053000000000000
#0703b1:13230000
#070361:0053000000000000
#070361:00000000000000000000001424000000
#0713b1:13
#071371:00000023000000000000000000000000
#0723b1:13230000
#072361:0053000000000000
#0743b1:00001323
#074361:0000000000530000
#074320:00000013
#074360:0000000000000023
#075320:13
#075360:0023000000000000
#075320:00130000
#075360:0000002300000000
#0773a0:14
#077360:0024000000000000
#077320:00140000
#077360:0000002400000000
#083360:0013000000000000
#083320:00000053230000000000000000000000
#083371:00130000
#0833b1:00000000005323000000000000000000
#0833b1:00000013
#083351:0000000000000023
#084371:0013000000000000
#0843b1:00000053230000000000000000000000
#084360:00130000
#084320:00000000005323000000000000000000
#084320:00000013
#084380:0000000000000023
#085360:0013000000000000
#085320:00000053230000000000000000000000
#085371:00130000
#0853b1:00000000005323000000000000000000
#0853b1:00000013
#085351:0000000000000023
#087321:0013000000000000
#087361:00000053230000000000000000000000
#0873b0:00130000
#087370:00000000005323000000000000000000
#087350:00000013
#0873b0:0000000000000023
#087321:00000013
#087381:0000000000000023
#0883b1:0013000000000000
#088371:00000053230000000000000000000000
#088320:00130000
#088360:00000000005323000000000000000000
#088380:00000013
#088320:0000000000000023
#0883b1:00000013
#088351:0000000000000023
#0893a1:0000142400000000
#089321:0000000000142400
#0903a1:1424000000000000
#090321:0000001424000000
#092321:00000018280000000000000000000000
#092361:00000000001828000000000000000000
