This file was generated by Ched 2.7.0.0.
#TITLE ""
#ARTIST ""
#DESIGNER ""
#DIFFICULTY 0
#PLAYLEVEL
#SONGID ""
#WAVE ""
#WAVEOFFSET 0
#JACKET ""
#REQUEST "ticks_per_beat 480"
#00002: 4
#BPM01: 186
#BPM02: 126.0
#BPM03: 162.0
#BPM04: 143.0
#BPM05: 103.0
#BPM06: 93.0
#00008: 01
#08008: 06010000
#07908: 00040205
#07808: 00000003
#TIL00: ""
#VOLUME: ""
#HISPEED 00
#MEASUREHS 00
#01018:16
#01012:0016
#01118:16
#01112:0016
#0141a:14
#01412:0014
#01410:41
#01518:14
#01514:0014
#0161a:14
#01612:0014
#01718:14
#01714:0014
#02212:0014
#0221a:24
#02514:1414
#02518:00140000
#02412:14
#0241a:0014
#0261a:14
#02712:14
#02818:14
#02914:14
#03814:00140000
#03818:0014
#03812:00000014
#0381a:24
#0381f:21
#0421a:14
#04212:00140000
#04218:0014
#04214:00000014
#0431a:14
#04312:00140000
#04318:0014
#04314:00000014
#04418:16160000
#04412:00001616
#04618:00140000
#04614:0014
#0461a:00000014
#04612:24
#05212:16160000
#05218:00001616
#0541a:1414
#05414:00140014
#05518:1414
#05512:00140014
#0561a:14
#05617:0014
#05914:14
#0591a:00140000
#05918:00000014
#05912:0014
#06612:00140000
#06618:0014
#06614:00000014
#0661a:24
#06818:16160000
#06812:00001616
#0721a:14
#07212:0014
#01314:0014
#02318:1414
#02314:00140000
#02310:41
#03112:0014
#03118:00000014
#0331a:0014
#03314:00000014
#0391a:14
#03914:00140000
#03918:0014
#03910:41
#04018:00140000
#04014:0014
#0401a:00000014
#04012:14
#04112:14
#04118:00140000
#04114:0014
#03512:0014
#03518:00000014
#04712:14141400
#04718:14141400
#0481a:14
#04814:00140000
#04818:0014
#04812:00000014
#05012:14
#0501a:00140000
#05014:0014
#05018:00000014
#05112:14
#0511a:00140000
#05114:0014
#05118:00000014
#05712:0014
#06014:14
#0601a:00140000
#06012:0014
#06018:00000014
#06314:00140000
#06318:1414
#06518:00140000
#06514:1414
#06412:14
#0621a:14
#06210:41
#0671a:14
#06716:00140000
#06712:0014
#07118:1414
#07112:1414
#0711a:00140000
#07114:00140000
#07110:41
#07412:14
#0741a:00140000
#07414:0014
#07418:00000014
#07612:16160000
#07618:00001616
#07512:14
#07516:00140000
#0751a:0014
#07914:18
#08314:00140000
#08318:0014
#08312:00000014
#0831a:24
#08612:14
#08616:00140000
#0861a:0014
#08512:14
#0851a:00000014
#08518:00140000
#08514:0014
#0841a:14
#08416:00140000
#08412:0014
#0871a:14
#08714:00140000
#08718:0014
#08712:00000014
#0881a:14
#08814:00140000
#08818:0014
#08812:00000014
#0811a:14141414
#08112:14141414
#08918:16000016
#08916:0000001600000000
#09112:16000016
#09114:0000001600000000
#0301f:11
#07012:24
#0701a:0024
#0781a:24
#07812:0024
#08212:26262600
#08218:0026002600000000
#03612:24
#04518:24242400
#04514:0024002400000000
#05314:24242400
#05318:0024002400000000
#06918:24242400
#06914:0024002400000000
#07714:24242400
#07718:0024002400000000
#09214:0000002600000000
#0491a:24242400
#04914:24242400
#04910:41
#0731a:2424
#07314:2424
#07312:00240000
#07318:00240000
#00714:000000000000000000000000000000000000000000000000000000000000000000000000000000000000000000000000000000000000000000000000000000000000000000000000000000000000000000000000000000000000000000000000000000000034000000000000000000000000000000000000000000000000000000340000000000000000000000000000000000000000000000000000000000000000340000000000000000000000000000000000000000000000000000000000000000000000000000000000000000000000000000000000000000000000000000000000000000000000000000000000000000000000000000000000000000000000000000000000000000000000000000000000000000000000000000000000000000000000000000000000000000000000000000000000000000000000000000000000000000000000000000000000000000000000000000000000000000000000000000000000000000000000000000000000000000000000000000000000
#0265a:54
#02752:54
#02858:54
#02954:54
#0565a:64
#05657:0024
#0725a:14
#07252:0014
#05752:0014
#0575a:14
#06452:54
#0625a:54
#07954:58
#08958:56000056
#08956:0000005600000000
#09152:66000066
#09154:0000006600000000
#07052:14
#0705a:0014
#0785a:14
#07852:0014
#04558:0014
#05354:0014
#06958:0014
#07754:0014
#08252:0016
#09254:0000001600000000
#09056:0000001600000000
#000380:00000000000000000000000000140000
#0013a0:00000000000000000000000000000000000000000000000000000000000000000000000000000000000000000000000000000000000000000000000000340000
#003380:0000000000000000000000340000000000000000000000000000000000000000000000000000000000000000000000000000000000000000000000000000000000000000000000000000000000000000000000000000000000000000000000000000000000000000000000000000000000000000000000000000000000000000
#0043a0:00000000000000000000000000000000000000240000000000000000000000000000000000000000000000000000000000000000000000000000000000000000
#005340:0000000000000000000000000000000000000000000000000000000000000000000000000000000000000000000000000000000000000000000000000000000000000000000000000014000000000000000000000000000000000000000000000000000000000000000000000000000000000000000000000000000000000000
#006320:00000034
#007340:000000000000000000000000000000000000000000000000000000000000000000000000000000000000000000000000000000000000000000000000000000000000000000000000000000000000000000000000000000000000000000000000000000000034000000000000000000000000000000000000000000000000000000340000000000000000000000000000000000000000000000000000000000000000340000000000000000000000000000000000000000000000000000000000000000000000000000000000000000000000000000000000000000000000000000000000000000000000000000000000000000000000000000000000000000000000000000000000000000000000000000000000000000000000000000000000000000000000340000000000000000000000000000000000000000000000000000000000000000000000000000000000000000000000000000000000000000000000000000000000000000000000000000000000000000000000000000000000
#009320:00000000000000280000000000000000
#012380:1600003600003600
#013380:0026000000000000
#0183a0:14
#018380:0024
#019320:14
#019340:0024
#020380:14
#0203a0:0024
#021340:14
#021320:0024
#0263a0:14
#026380:0024
#027320:14
#027340:0024
#028380:14
#0283a0:0024
#029340:14
#029320:0024
#0303a0:14000024
#030380:0000003400000000
#032320:14000024
#032340:0000003400000000
#0343a0:1434
#034380:00340034
#0353a0:24
#036320:1434
#036340:00340034
#037320:24
#0563a0:14
#056370:0054
#0573a0:24
#058380:1636363636362600
#061320:1636363636362600
#0623a0:14
#062380:0024
#064320:14
#064340:0024
#079340:18
#079360:0000000000000024
#089380:16000036
#089360:0000003600000000
#090360:0036002600000000
#091320:16000036
#091340:0000003600000000
#092340:0036002600000000
