This file was generated by Ched 2.7.0.0.
#TITLE ""
#ARTIST ""
#DESIGNER ""
#DIFFICULTY 0
#PLAYLEVEL
#SONGID ""
#WAVE ""
#WAVEOFFSET 0
#JACKET ""
#REQUEST "ticks_per_beat 480"
#00002: 4
#BPM01: 210
#00008: 01
#TIL00: ""
#HISPEED 00
#MEASUREHS 00
#00019:14
#00213:14
#00419:14
#00613:14
#0081a:14
#0091a:14
#01014:14
#01114:14
#01218:14
#01318:14
#01412:14
#01512:14
#0161a:14
#01610:41
#01714:14
#01818:14
#01912:14
#0201a:14
#02114:14
#02219:14
#02213:14
#04612:14
#04718:14
#05618:0016
#05612:26
#05610:41
#05712:1616
#05818:16
#05812:0016
#05918:1616
#06212:16
#06218:0016
#06312:16
#06318:0016
#06412:2616
#06512:1616
#06618:2616
#06718:1616
#07118:14
#07214:14
#0731a:14
#07412:14
#07518:14
#07614:14
#0771a:14
#07814:14
#0781f:11
#08018:14
#08212:14
#0841a:14
#09218:00160000
#09212:00000016
#09210:00000041
#09312:00160000
#09318:00000016
#09412:00160000
#09418:00000016
#09518:00160000
#09712:00000016
#09818:00160000
#09812:00000016
#09918:00160000
#09912:00000026
#10012:00160016
#10112:00160000
#10118:00000026
#10218:00160016
#10318:00160000
#0241a:14
#02618:14
#0281a:14
#03018:14
#02514:14
#02712:14
#02914:14
#03112:14
#03110:0000000000000041
#0401a:14
#04214:14
#04418:14
#04410:0041
#09112:00000026
#0911f:00000021
#07010:00410000
#0323a0:14
#0333a0:24
#034340:14
#035340:24
#036380:14
#037380:24
#038320:14
#039320:24
#048320:14
#049320:24
#050380:14
#051380:24
#052340:14
#053340:24
#0543a0:14
#0553a0:24
#060320:1626
#061380:1626
#068330:1400000034000034
#069330:0000003400000024
#086340:14
#087340:24
#088380:14
#089380:34
#090380:24
#095320:00000016
#096320:00260000
#096380:00000016
#097380:00260000
#103330:00000014
#104330:0000340000340000
#105330:0034000000240000
#106390:0000000000140000
#107390:0000000000240000
