This file was generated by Ched 2.7.0.0.
#TITLE ""
#ARTIST ""
#DESIGNER ""
#DIFFICULTY 0
#PLAYLEVEL
#SONGID ""
#WAVE ""
#WAVEOFFSET 0
#JACKET ""
#REQUEST "ticks_per_beat 480"
#00002: 4
#BPM01: 210
#00008: 01
#TIL00: ""
#HISPEED 00
#MEASUREHS 00
#00116:0012120000000000
#00114:0012
#0021c:0012
#0021a:0000000000001212
#00318:0012120000000000
#0031a:0012
#00412:0012
#00414:0000000000001212
#00516:0012120000000000
#00514:0012
#0061c:0012
#0061a:0000000000001212
#00718:0012120000000000
#0071a:0012
#00812:0012
#00814:0000000000001212
#0081c:12
#00818:0012
#00916:0012120000000000
#00914:0012
#0091c:12
#00918:0012
#0101c:0012
#0101a:0000000000001212
#01012:12
#01016:0012
#01118:0012120000000000
#0111a:0012
#01112:12
#01116:0012
#01212:0012
#01214:0000000000001212
#0121c:12
#01218:0012
#01316:0012120000000000
#01314:0012
#0131c:12
#01318:0012
#0141c:0012
#0141a:0000000000001212
#01412:12
#01416:0012
#01515:00000016
#01518:26
#01512:0026000000000000
#0161b:13001300000000330000130000000000
#01615:00130013
#01612:2313
#01610:41
#0201b:1313000013130000
#02018:00130013
#02012:23130013
#02015:00000000000000330000000000000000
#02112:1313000013130000
#02115:00130013
#0211b:13130013
#02118:00000000000000330000000000000000
#01712:13001300000000330000130000000000
#01718:00130013
#0171b:1313
#0181b:13001300000000330000130000000000
#01815:00130013
#01812:1313
#01912:13001300000000330000130000000000
#01918:00130013
#0191b:1313
#02212:2414001300000013
#0221a:1424000000140000
#02216:0000001400000014
#02215:0000000000130000
#0231a:0014000000000000
#02316:0000001400000000
#02312:0000001300130000
#02315:0013000000001300
#02318:0000000000000023
#02418:0013000000000000
#02415:0000001300130000
#02412:0000000000000013
#02515:0013000013001300
#02512:0000130000000013
#02518:0000000000130000
#0261b:1300001300000013
#02615:0013000000130000
#02612:00130000
#02618:0013000013000000
#02715:0013000000000000
#0271b:0000131300000000
#02716:00000014
#02712:0000000000130023
#02812:0013000000000000
#0281b:0000001300001300
#02818:0000000000130000
#02816:00140000
#02815:0000000000000013
#02918:00000013
#02915:0000000000000013
#02912:1313
#03012:1300001300000014
#03018:0013000000130000
#0301b:00130000
#03015:0013000013000000
#0311a:0014000000000000
#03112:0000001400000000
#03119:0000000013131300
#03114:00000000000000000013001300130000
#0311b:0000000000000013
#03116:14140000
#03110:0000000000000041
#03218:0000001300001300
#03215:0013000000130000
#0321b:0000230013000013
#03212:00000013
#03318:0013000000130000
#03315:13000013
#03317:0000000000000013
#03312:0000000000000013
#03415:0013000000130000
#03418:00130013
#03412:0000131300001300
#0341b:0013
#0341a:0000000000000024
#03516:13
#03515:0000000000130000
#03518:00000013
#03512:0024000000000013
#0351b:0000000000000013
#03517:00130000
#0351a:0000002400000000
#03615:0000001300001300
#03618:0013000000130000
#03612:0000130013000013
#0361b:00000013
#03715:0013000000130000
#03718:13000013
#0371b:0000000000000013
#03712:0000000000000013
#03812:0013000013000024
#03815:00130013
#0381b:0000131300001300
#03818:0000000000130000
#03916:0014140000000000
#03918:0000001313131300
#03915:00000000000000130013001300000000
#0391b:0000000000000013
#03912:0000000000000013
#04017:00000013000000000000000000000000
#04015:0000000000000013
#0401a:0014
#0421a:0014
#04215:0000000000000013
#04116:0000000000000013
#04118:0013000000000000
#04112:0000131300000000
#0411b:0000000000131300
#0441a:0014
#04412:0013130000000000
#04416:0013
#04417:00000013
#04410:0041
#0451a:0014
#04512:13000013
#04517:13
#04516:00131300
#04518:00000013
#0461a:0014
#0461b:13
#04612:00130000
#04616:0013
#04617:00000013
#04318:0013130000130013
#04312:0000001300000000
#0431b:0013
#04315:00000013
#0471b:1300000000000013
#04717:00130000
#04716:1300000000141400
#04712:0000000013000013
#04816:00000013000000000000000000000000
#04812:0014
#04818:0000000000000013
#05012:0014
#05016:0013000000001300
#0501b:0013000000001300
#04917:0000000000000013
#04912:0013000000001300
#04915:0000130000130000
#04918:0013
#0491b:0000001300000000
#05116:00000013
#0511a:0000001400000000
#0511b:00000013
#05112:0013000000000000
#05117:1313000000000000
#05212:0000130000130000
#05215:0000001300000013
#05218:0000000000130000
#0521b:0000000000000013
#0521a:24
#05312:0013000013000000
#0531b:00130000
#05318:1300001300001300
#05315:0000000000130013
#05415:0000001300000013
#05412:00230023
#0541b:2323
#0551b:1313000000000000
#05518:0000131300000000
#05512:00130013000000000000000000000000
#05515:00000000001300130000000023000000
#0561b:1300000013000013
#05615:0000130000130013
#05618:00000013
#05612:13
#05610:41
#05712:13
#05718:0013000000000013
#0571b:0000131300000000
#05715:0000001300000000
#05812:1300000013000013
#05818:0000130000130013
#05815:00000013
#0581b:13
#05915:0013000000130000
#05918:0000001300000000
#0591b:0000000000000013
#06012:0013000013000013
#06015:00000000001300000000000000000000
#0601b:0000131300000013
#06017:0013
#0611b:0013000013000023
#06118:00000000001300000000000000000000
#06112:0000131300000013
#06116:0013
#06212:00130000
#06217:00130000000000000000000000000000
#0621b:0000000013130013
#06216:0000000000130000
#06318:00000000130000000013001300000000
#06312:0000000023130000
#06315:0013000000002313
#0631b:00000000000013000000000000130013
#06414:00140000
#06412:2413
#0641b:0000000000131300
#06415:00000000000000000000001300000000
#0641a:00240000
#0651b:1300130013130000
#06515:0013130000000000
#06512:0000000013130000
#06518:0000001300000000
#06514:0000000000000014
#0651a:0000000000000024
#06618:00000000140000000000001300000000
#0661b:0013
#06612:0000240000131300
#06712:1300130000000013
#06718:0013130000000000
#0671b:0000000013130000
#06715:0000001300000000
#06816:00130000000000000000000000000000
#0681b:00130000
#06812:0000000013000014
#06817:0013
#06818:0000000000000014
#06914:0014000000140000
#0691a:0014000000140000
#06912:0000001400000014
#06918:0000001400000000
#06916:0000000000000014
#07112:0012120000000000
#07118:00001200003333003333000013000000
#0711c:0000000000000012
#07116:0000000000000012
#07012:0000000000000012
#07018:0000000000000012
#07015:00000000003333003333000013000000
#07010:00410000
#07416:0000000000000012
#0741c:0000000000000012
#07418:00120000
#07412:00000000003333003333000013000000
#07516:0012120000000000
#0751c:0012000000000000
#07518:0000000000000012
#07512:0000000000000012
#0751b:00000000003333003333000013000000
#07912:0012000012000000
#07915:00120000
#07918:0000001200000000
#0791c:0000000000120000
#07914:00000012
#0791a:0000000000000012
#0801c:0000000000000012
#08012:0012
#08016:00000012
#0801a:0000120000320000
#08112:0000001200120000
#0811a:0000000000000012
#0811c:0012000000000000
#0841a:00001212
#08414:00001212
#0851c:12120000
#08512:0012001200000000
#08519:00001212
#08515:0000000000120012
#08619:0012
#08615:0000000000001212
#0861c:22220000
#08612:22220000
#08719:1200000012120000
#08712:0012000000000012
#0871c:0000120000000012
#08715:0000001200000000
#08812:0012
#0881c:0012
#08819:0000000000001212
#08915:1200000012120000
#0891c:0012000000000012
#08912:0000120000000012
#08919:0000001200000000
#09212:0000140000140014
#0921a:0000001400140000
#09216:14001414
#09210:00000041
#09316:1414001400141400
#09312:0014000000001400
#0931a:0014
#0941a:0000140000140014
#09416:1414
#09412:0000001400140000
#09512:0014000000140000
#0951a:0000001400000014
#09618:00140000000000000000000000000000
#09612:1400000000000014
#09614:0014000000000000
#09616:0000140000140000
#0961a:00000014000000001400140000000000
#09712:00000014000000001400140000000000
#09716:00000000140000000000000000140000
#09714:00140000000000000000000000000000
#0971a:1400000000240000
#09718:0014000000000000
#0981a:1414
#09812:00140000
#09816:0014
#0991a:1400000024140000
#09912:00000000001400140000000000000000
#09918:0000241400002600
#09914:00000000000000000014001400000000
#10018:16
#1001a:00140000
#10012:2600141414001400
#10016:00000000000000140000140000001400
#10112:1400141400260000
#1011a:1400141400000000
#10116:0014000000000000
#10118:0000000000160000
#10212:16140000
#1021a:0000141414001400
#10216:00000000000000140000140000001400
#10218:26
#1031a:1400141400140000
#10316:00001400000000000000000000140000
#10312:1400141400000000
#10412:1400000000000024
#1041a:0000140000240000
#10416:0000140000140014
#10516:0014001400240024
#1051a:0024000000000000
#10512:0000002400000000
#09116:00000014
#0911a:00000014
#09112:0023
#0911b:0023
#0911f:00000021
#10616:0024002400140000
#1061a:0000000000240014
#10716:1414000000000000
#10712:00140000
#1071a:00000000001400000000000000000000
#10713:0000001400000000
#10719:00000000000000140000000000000000
#10714:0014
#10718:00000000000000000014000000000000
#10715:0000000000260000
#00014:0000000000001212
#00012:1212
#0721c:0012120000000000
#07216:0012000000000000
#07212:0000000000000012
#07218:0000000000000012
#07215:00000000003333003333000013000000
#07618:0012000000000000
#07612:00001200003300330000000000330000
#0761b:00000000000000000033003300000000
#07816:12120000
#07818:00001212
#0781f:11
#0821c:0012000000000000
#0821a:00120000
#08218:0000001200000000
#08216:0012
#08312:0012000000001212
#08314:00120000
#08316:0000001200000000
#08318:0012
#0831c:0000000000000012
#09017:0022
#07315:00000033000000000033003300000000
#07318:00000000003300330000000000330000
#0085c:52
#00858:0022
#0095c:52
#00958:0022
#01052:62
#01056:0022
#01152:62
#01156:0022
#0125c:52
#01258:0022
#0135c:52
#01358:0022
#01452:62
#01456:0022
#01655:00000013
#02052:00000013
#0215b:00000013
#01758:00000013
#01855:00000013
#01958:00000013
#02256:0000005400000054
#0225a:0054000000540000
#0235a:0054000000000000
#02356:0000005400000000
#02655:0063000000630000
#02652:00230000
#0265b:0000000000000063
#0275b:0000001300000000
#02752:0000001300000000
#02858:0000000000530000
#0285b:00000023
#02855:0000000000000063
#03058:0053000000530000
#0305b:00230000
#03052:0000000000000014
#02952:23
#0315a:0014000000000000
#03152:0000001400000000
#0315b:0000000000000053
#03357:0000000000000053
#0335b:0000001300000000
#03352:0000001300000000
#0375b:0000001300000063
#03752:0000001300000000
#03952:0000000000000053
#04057:00000023000000000000000000000000
#0405a:0014
#0425a:0014
#04156:0000000000000053
#04152:0000005300000000
#0445a:0014
#04456:0053
#0455a:0014
#04557:53
#04556:0053
#04552:00000023
#0465a:0014
#0465b:53
#04656:0053
#04358:0000000000000053
#0475b:5300000000000063
#04757:00230000
#04756:53
#04856:00000023000000000000000000000000
#04852:0014
#05052:0014
#05056:0063000000005300
#0505b:0053000000000000
#04957:0000000000000063
#05156:00000053
#0515a:0000001400000000
#05255:0000001300000013
#05258:0000000000130000
#0525b:0000000000000053
#05358:23
#0565b:53
#05655:0000530000000053
#05652:13
#05752:23
#05755:0000005300000000
#05852:5300000000000013
#05858:0000530000000063
#05955:0053000000530000
#05958:0000006300000000
#0595b:0013000000130053
#05952:0000001300000013
#06052:0000000053000063
#06057:0053
#0605b:0000000000000013
#0615b:0000000063000053
#06156:0063
#06152:0000000000000013
#06252:00530000
#06257:00230000000000000000000000000000
#06256:0000000000530000
#0625b:0000000000000053
#06752:0000000000000053
#0675b:0000000000530000
#06757:0000000000000013
#06856:00230000000000000000000000000000
#0685b:00530000
#06852:0000000053000014
#06857:0053
#0695a:0014000000140000
#06952:0000001400000014
#06956:0000000000000054
#09252:0000000000140000
#0925a:0000000000540000
#09256:64000024
#09356:0054000000005400
#09352:0014000000000000
#0945a:0000000000140054
#09456:5400000000000014
#09452:0000000000540000
#09552:0054000000640000
#0955a:0000005400000000
#09556:0014001400140000
#09752:0000000000640000
#09756:00000000640000000000000000240000
#0975a:0000000000140000
#0985a:64
#09856:0054
#09852:00000014
#0995a:14
#09958:00000016
#10052:16000014
#1015a:1400001400000000
#10152:0000001400160000
#1035a:0000001400640000
#10356:00000000000000000000140000240000
#10352:1400005400000000
#10452:6400000000000034
#1045a:0000640000440000
#10456:00640000
#09156:00000064
#09656:0000540000140000
#0965a:0000000000540000
#10656:0014001400540000
#1065a:0000000000440000
#03552:0034000000000063
#0355a:0000004400000000
#08256:0052
#08358:0052
#0835c:0000000000000052
#08352:0000000000000052
#1025a:00000014
#10258:16
#06452:14
#0645a:00140000
#0655a:0000000000000014
#06652:00140000
#10755:0000000000160000
#1055a:0044000000000000
#10552:0000003400000000
#10556:0000000000140014
#0875c:0000000000000052
#08752:0000000000000052
#08952:0000000000000062
#0895c:0000000000000062
#0345a:0000000000000044
#03852:0000000000000014
#0003c0:12
#0023c0:22
#002321:12
#004321:22
#0043c0:12
#0063c0:22
#006321:12
#008321:22
#0083c0:12
#008380:0052
#0093c0:52
#009380:0052
#0103c0:22
#010321:12
#010361:0052
#011321:52
#011361:0052
#012321:22
#0123c0:12
#012380:0052
#0133c0:52
#013380:0052
#0143c0:22
#014321:12
#014361:0052
#015321:22
#016381:0000001300000000
#0163b1:00000000000000332300000000000000
#017351:0000001300000000
#017321:00000000000000332300000000000000
#018381:0000001300000000
#0183b1:00000000000000332300000000000000
#019351:0000001300000000
#019321:00000000000000332300000000000000
#020321:0000001300000000
#020351:00000000000000332300000000000000
#0213b1:0000001300000000
#021381:00000000000000332300000000000000
#0223a1:0014000000340000
#022361:0000003400000034
#0233a1:0034000000240000
#023361:0000003400000000
#023321:0000000000000013
#024321:0023000000000000
#0243b1:0000001300230000
#024381:0000000000000013
#025381:0023000000000000
#0253b1:0000001323000000
#026351:0013002300000000
#026321:00530000
#026351:0000000000130000
#026321:0000000000000023
#0263b0:0000000000000013
#027380:0023000000000000
#027320:0000132300000000
#0273b0:0000000000000013
#0283b0:0023000000000000
#028320:0000001300230000
#028381:0000000000130023
#0283b1:00000053
#028350:0000000000000013
#029320:53
#029350:0023000000000000
#029381:0013230000000000
#029350:0000132300000000
#0293b1:0000001323000000
#030381:0013002300000000
#0303b1:00530000
#030381:0000000000130000
#0303b1:0000000000000023
#0313b1:0000000000000013
#032381:0023000000000000
#032321:0000132300000000
#0333b1:0000132300000000
#033320:0000132300000000
#033370:0000000000000013
#0343b0:0023000000000000
#035320:0000000000000013
#036350:0023000000000000
#0363b0:0000132300000000
#037320:0000132300000000
#0373b1:0000132300000000
#0373b1:0000000000000013
#038371:0023000000000000
#0383a1:0000000000000014
#0393a1:0024000000000000
#039321:0000000000000013
#040371:00000053000000000000000000000000
#040321:0023
#041321:0000001300000000
#041361:0000000000230000
#041361:0000000000000013
#042321:0023
#043381:0000000000000013
#0443b1:00230000
#044361:0013
#044321:00000023
#045371:13
#0453b1:00230000
#045361:0013
#045321:00000053
#046361:23
#0463b0:13
#046370:00230000
#046360:0013
#046320:00000023
#0473b0:1323
#047370:00530000
#047361:13
#047321:00230000
#0473b0:0000000000000013
#048360:00000053000000000000000000000000
#0483b0:0023
#049370:0000000000000013
#0503b0:0033000000000000
#050370:0000002300000000
#050361:0013000000000000
#050321:0000002300000000
#050361:00000013
#051321:23
#051361:00000013
#052321:23
#052381:00130000
#0523b1:0000002300000000
#0523b1:0000000000000013
#053381:53
#0533b1:0023000000000000
#054321:13
#054351:0023000000000000
#054380:0013000000000000
#0543b0:00230000
#054320:0013
#054350:0000000000230000
#054381:0000000000130000
#0543b1:00000023
#055381:00001323
#0563b1:13
#056381:00230000
#056350:00130000
#056320:0023
#056350:0000000000000013
#057320:53
#057350:0023000000000000
#057350:0000001300000000
#057320:0000000000230000
#0573b1:0000000000132300
#057350:0000000000001323
#058320:13
#058350:00230000
#058381:00130000
#0583b1:0023
#058381:0000000000000013
#0593b1:0023000000000000
#059350:0013000000000000
#059320:0000002300000000
#059381:0000001300000000
#0593b1:0000000000230000
#059350:0000000000130000
#059320:0000000000000023
#0593b1:0000000000000013
#060371:0023000000000000
#060321:0013
#060361:00000023
#060370:0013
#0603b0:00000023
#060320:0000000000000013
#061360:0023000000000000
#0613b0:0013
#061370:00000023
#061361:0013
#061321:00000023
#0613b1:0000000000000013
#062371:00530000000000000000000000000000
#0623b1:00230000
#062320:00130000
#062360:0023
#062360:0000000000130000
#062320:0000000000000023
#0623b1:0000000000000013
#063381:0023000000000000
#064321:0000000000000013
#065321:23
#0663b1:0000000000000013
#0673b1:23
#067351:0000000013230000
#0673b0:0000000000130000
#067370:0000000000000023
#067321:0000000000000013
#068361:00530000000000000000000023000000
#068321:00533300
#0683b0:00130023
#068370:0033
#069360:0000000000000014
#0703a0:00240000
#070351:00000000133333003333230000000000
#070321:00000000000000330000000000000000
#0703b0:0000000000132300
#071380:00000000133333003333230000000000
#0713b0:00000000000000330000000000000000
#071321:0000000000132300
#072351:00000000133333003333230000000000
#072321:00000000000000330000000000000000
#0723b0:0000000000132300
#073320:0013000000000000
#073350:00000033230000000000000000000000
#073381:00000000133300332300000000000000
#0733b1:0000003300000000
#073350:00000000000000001333003323000000
#073320:0000000000330000
#073381:00000000000000000000000013330000
#0733b1:0000000000000033
#0743b1:0023000000000000
#073320:0000000000000013
#074320:0023000000000000
#074320:00000000133333003333230000000000
#074360:00000000000000330000000000000000
#074381:0000000000132300
#0753b1:00000000133333003333230000000000
#075371:00000000000000330000000000000000
#075350:0000000000132300
#076320:00000000133300332300000000000000
#076350:0000003300000000
#0763b1:00000000000000001333003333000000
#076381:0000000000330033
#077381:0033003300332300
#076320:00000000000000000000000013330000
#076350:0000000000000033
#077350:00333323
#0783c0:12220000
#078320:00001222
#078380:0000000000000012
#079380:0022000000000000
#080360:12220000
#080380:0012
#0803a0:0000000000320000
#0803c0:00000022
#080360:0000000000000012
#081360:0022000000000000
#081380:0000001200220000
#081340:0000000000000012
#082340:0022000000000000
#082360:0012
#082320:0000000000000022
#0823a1:0000000000000012
#0833a1:0022000000000000
#083381:0012
#0833c1:00000022
#083321:0000000000000012
#084361:00220000
#0833c0:0000000000000012
#084380:00220000
#087320:0000000000000012
#088360:00220000
#0873c1:0000000000000012
#088381:00220000
#0893c1:0000000000000012
#090381:00220000
#089320:0000000000000012
#090360:00220000
#090370:0000000012323232
#091370:3232220000000000
#091360:00000014
#092320:24
#092361:14
#0923a1:00240000
#0923a1:0000000000140024
#092361:00000054
#093361:0014000000000000
#0933a1:0000002400000000
#093361:00000014
#0943a1:24
#094360:14
#094320:00240000
#094320:0000000000140000
#094360:0000000000000024
#0943a1:0000000000000014
#095361:0024000000000000
#095320:0014000000000000
#095360:0000002400000000
#0953a1:0000001400000000
#095361:0000000000240000
#095320:0000000000140000
#095360:0000000000000024
#096360:00140000
#096320:0024
#0963a0:0000000000140000
#096360:0000000000000024
#097360:00140000
#0973a0:0024
#097320:0000000000140000
#097360:00000000000000000000000000540000
#098320:24
#0983a1:14
#098361:00240000
#098361:0014
#098321:00000024
#098360:0000000000001424
#099360:1424000000000000
#1003a0:0000000000142400
#102320:0000000000142400
#103320:0000001400000000
#103360:0000000000240000
#1033a1:0000000000140000
#103361:00000000000000000000000000540000
#1043a1:54340000
#104361:0024
#104320:1424
#104360:00340000
#1053a0:0000000000142400
#105320:0000000000000014
#106320:24
#1063a0:0014240000000000
#106320:0000001424000000
#106360:0000000000140000
#106320:0000000000000024
