This file was generated by Ched 2.7.0.0.
#TITLE ""
#ARTIST ""
#DESIGNER ""
#DIFFICULTY 0
#PLAYLEVEL
#SONGID ""
#WAVE ""
#WAVEOFFSET 0
#JACKET ""
#REQUEST "ticks_per_beat 480"
#00002: 4
#BPM01: 210
#00008: 01
#TIL00: ""
#HISPEED 00
#MEASUREHS 00
#01516:00000014
#0151a:24
#01512:0024000000000000
#01618:0000130000130000
#01615:00001313
#01612:24
#0161a:24
#01610:41
#0171b:13
#01715:0000130000130000
#01718:00001313
#01812:13
#01818:00130000
#01815:00001313
#0181b:0000000000130000
#02012:23130000
#0201b:23130000
#02018:0000000000130000
#02015:00001313
#0211b:13130000
#02112:13130000
#02118:00001313
#02115:0000000000130000
#02212:14
#0221a:0024000000000000
#0241b:0000001300000000
#02415:0000000000130000
#02515:00131313
#02518:0000001300000013
#0251b:0000000000130000
#02612:1313000000000000
#02618:0000001300000000
#02615:0000000000130000
#02718:0013001300000013
#02715:00130013
#03118:0013000013001300
#03115:0000001300130013
#03110:0000000000000041
#0321b:0013
#03212:0000000000130000
#03218:00000013
#03215:0000000000000013
#0331b:1300000000130000
#03315:0000001300001300
#03312:0013000000000000
#03318:0000130000000013
#03415:00131300
#0341b:0000001300000000
#03418:0000000000130000
#03412:00000013
#0341a:0000000000000024
#03512:0024000000130013
#03518:00000013
#0351a:0000002400000000
#0361b:0013
#03612:0000000000130000
#03618:00000013
#03615:0000000000000013
#03718:0000000000130000
#03715:00000013
#0371b:00130000
#03712:0000001300000000
#03812:00130013
#0381b:0000001300000000
#03815:0013
#03818:0000000000130000
#0381a:0000000000000014
#03912:0014000014000014
#03916:0000140000140000
#0391a:0000001400001400
#0411b:0000131300000000
#04112:0000000000001313
#04312:0000001300000013
#04318:0013
#04315:0000000000130000
#0431b:00000013
#04512:13
#04516:0013
#04416:00000013000000000000000000000000
#04410:0041
#04612:13
#04616:00130000
#04712:13
#0471b:0000000000000013
#04716:0000000000000013
#04918:0000000000130013
#0491b:0000001300000000
#04915:0013
#04912:00000013
#0501b:0013000000000000
#05015:00000013
#05115:0013000000000000
#05118:13000013
#05218:00130000
#05212:2300000000000013
#0521b:2300000000000013
#05315:0000130013000013
#05318:0000001300000000
#0531b:0013000000130000
#05312:00000013
#05418:13
#0551a:00000014
#05512:00000014
#05514:24242400
#05518:0024002400000000
#05612:13001313
#05618:1300000000130000
#0561b:0000130000000013
#05615:00130000
#05610:41
#05715:0013001300001300
#05718:0000130000000013
#05712:0000000000130000
#05918:0013000000000000
#05915:0000001300000013
#0591b:0000000000130000
#06018:0000130000000013
#06012:0000001300000000
#0601b:0013
#06115:00130000
#0611b:0000001300001300
#06112:0000000013000013
#06212:0013
#06218:0013
#0631b:0013001300000013
#06315:00130023
#06318:0000000000130000
#06312:0023
#06415:00001313
#0641b:0000000000130013
#06412:24
#0641a:00240000
#06512:13
#06515:0013000013130000
#06518:00130000
#0651b:0000001300000000
#0651a:0000000000000024
#06618:00001313
#06612:0000240000130013
#0671b:1300000013130000
#06718:0013000000000000
#06715:00130000
#06712:0000001300000000
#06812:00130013
#06818:00130000
#06815:0013
#0681b:0013
#0681a:0000000000000014
#06916:0014000000140000
#06912:0000001400000000
#0691a:0000000000000014
#09112:00000013
#09118:00000013
#09116:0024
#0911f:00000021
#0921b:1300000000000013
#09215:1300001300000000
#09212:0000000000130000
#09218:00131300
#09210:00000041
#09315:0013000013001300
#09318:1300000000130000
#0931b:0000001300001300
#09418:1300001300000013
#09412:13
#0941b:0000000000130000
#09415:00131300
#09515:0013000000000000
#09512:0000001300000000
#09518:0000000000130000
#09615:1300000000130000
#0961b:0013000000000000
#09612:00130000
#09718:13
#09712:0013000000000000
#0971b:0000130000130000
#09715:0013
#09815:0000000000000013
#0981b:00000013
#09918:1313
#09912:0013000000130000
#0991b:00130000
#09915:0000001300000000
#0991a:00000024
#10018:0000130013000013
#10012:2400001300130000
#1001b:00000013
#10115:13
#10112:0013000000240000
#10118:0000131300000000
#10215:0000130013000013
#1021b:0000001300130000
#10212:00000013
#1021a:24
#10318:13
#1031b:0013000000000000
#10312:0000131300000000
#1041b:1313
#10415:13
#10418:00130000
#10412:0000130000240000
#10416:0000000000000024
#10612:0000000000140000
#10614:0024000000000000
#1061a:0000002400000000
#1071a:1414000000240000
#10712:00240000
#10718:0000002400000000
#10714:0024
#02315:0000000000130013
#02318:00000013
#0191b:13
#01915:00130000
#01918:00001313
#01912:0000000000130000
#03015:1300001300000000
#0301b:0013000000000000
#03018:0013
#02812:0000001300000000
#02818:0000000000130000
#02918:0000130013000013
#02915:0000001300000000
#02912:00000013
#0581b:13001313
#05815:1300000000130000
#05812:0000130000000013
#05818:00130000
#07718:0013001300130000
#07715:00131300
#07712:00000026
#08312:00000013
#08318:0000333300000000
#08415:0013
#08412:00000013
#0851b:13130000
#08512:0013001300000000
#08518:00001313
#08515:0000000000130013
#08615:0000000013000013
#08618:23230013
#0871b:13130000
#08715:0013001300000000
#08718:0013
#08712:0000000000130000
#08812:0013
#08818:00000013
#08815:0000000000000013
#08918:13
#08915:0013000000000000
#0891b:00131300
#08912:0000001300130000
#0781f:11
#09017:0022
#1051a:0024000000000000
#10516:0000002400000000
#10512:0000000000240000
#10518:0000000000000024
#0731b:00000033330000000033333333330000
#07317:00000000003333330000000000000000
#07615:00000000003333330000000000000000
#07612:00000000000000000033333300000000
#08215:0000333300000000
#07016:00000000003333333333000000000000
#07010:00410000
#07117:00000000003333333333000000000000
#07216:00000000003333333333000000000000
#07415:00000000003333333333000000000000
#07518:00000000003333333333000000000000
#00918:0032320000000000
#00818:0000000032003232
#01116:0032320000000000
#01016:0000000032003232
#0131c:0032320000000000
#0121c:0000000032003232
#03158:0013000000000000
#03155:0000001300000053
#03552:0014000000000063
#0355a:0000001400000000
#03655:0000000000000053
#0385a:0000000000000014
#03752:0000001300000000
#03952:0000000000000054
#04152:0000000000000053
#0415b:0000005300000000
#04352:0000000000000063
#04552:63
#04556:0063
#04456:00000023000000000000000000000000
#04652:63
#04656:00230000
#04752:63
#0475b:0000000000000063
#04756:0000000000000063
#04958:0000000000000053
#0505b:0053000000000000
#05058:0013
#05155:0053000000000000
#05152:0000001300000000
#05458:53
#0565b:0000000000000013
#05958:0013000000000000
#05955:0000001300000063
#0595b:0000000000130000
#0605b:0013
#06058:0000000000000053
#06152:0000000013000053
#0685a:0000000000000014
#06956:0014000000140000
#06952:0000001400000000
#0695a:0000000000000014
#09252:0000000000130000
#09458:0000000000000013
#0945b:0000000000130000
#09555:0013000000000000
#09552:0000001300000000
#09558:0000000000530000
#09652:00130000
#09655:0000000000630000
#0975b:0000130000530000
#10652:0000000000540000
#10654:0014000000000000
#1065a:0000001400000000
#02355:0000000000000053
#02655:0000000000530000
#02758:0000000000000063
#03358:0000000000000053
#05852:0000000000000013
#0675b:0000000000530000
#06758:0000000000000013
#10352:0000005300000000
#10355:0000000000130000
#06452:14
#0645a:00140000
#0655a:0000000000000014
#06652:00140000
#0995a:00000014
#10052:14
#10152:0000000000140000
#1025a:14
#1075a:0000000000140000
#03052:0000000000000013
#04056:0014
#04255:0013
#04857:0013
#04852:0013
#10452:0000000000140000
#10456:0000000000000014
#1055a:0014000000000000
#10552:0000000000140000
#10556:0000001400000000
#10558:0000000000000014
#0345a:0000000000000014
#000390:1200000032003232
#001390:0032320022000000
#002350:1200000032003232
#003350:0032320022000000
#0043b0:1200000032003232
#0053b0:0032320022000000
#006330:1200000032003232
#007330:0032320022000000
#0083c0:12
#008380:0000000032003232
#009380:0032320022000000
#010320:12
#010360:0000000032003232
#011360:0032320022000000
#012380:12
#0123c0:0000000032003232
#0133c0:0032320022000000
#014360:12
#014320:0022
#0223a0:0014003400000034
#022370:0000000000340000
#023370:0034000000000000
#0233a0:0000002400000000
#023350:0000000000000013
#024320:0023000000000000
#024380:0000000000000013
#025380:0023000000000000
#026350:0000000000130000
#026320:0000000000000023
#027380:0000000000000013
#0283b0:0023000000000000
#028350:0000000000000013
#029350:0023000000000000
#030320:0000000000130023
#031350:0000000000000013
#032320:00230000
#033380:0000000000000013
#0343b0:0023000000000000
#035320:0000000000000013
#036350:00230000
#036350:0000000000000013
#037320:0023000000000000
#0373b0:0000000000000013
#0383b0:0023000000000000
#039320:0000000000000014
#040360:0024
#0413b0:0000001300000000
#041380:0000000000230000
#041320:0000000000000013
#042350:0023
#043320:0000000000000013
#044360:00000053000000000000000000000000
#044320:0033
#045320:33
#045360:0033
#046320:3333
#046360:00530000
#047320:33
#047360:0023
#0473b0:0000000000000013
#048370:0023
#047361:0000000000000013
#048321:0023
#049381:0000000000000013
#0503b1:0033000000000000
#050381:0023
#051351:0013000000000000
#051321:0000002300000000
#052351:0000001300230000
#054381:13
#0543b1:0023
#059351:0000000000000013
#060321:0023000000000000
#060381:0000000000000013
#0613b1:0023000000000000
#061321:0000000000000013
#062351:00230000
#062321:0000000000130023
#062380:0000000000130023
#0673b0:0000000000130000
#067380:0000000000000023
#070320:00130000
#070360:00000000003333333333230000000000
#0713b0:00130000
#071370:00000000003333333333230000000000
#072320:00130000
#072360:00000000003333333333230000000000
#0733b0:00001333330000000033333333332300
#073370:00000000003333333300000000000000
#074350:00000000133333333333000000000000
#074320:0000000000230000
#075380:00000000133333333333000000000000
#0753b0:0000000000230000
#076350:00000000133333330000000033332300
#076320:00000000000000003333333300000000
#078320:13
#078360:0000000000000033
#079320:00000023
#078371:13
#0783b1:0000000000000033
#079371:00000023
#0803b1:13
#080371:0000000000000033
#0813b1:0000000000230000
#080360:13
#080320:0000000000000033
#081360:0000000000230000
#081320:0000000000000013
#082320:0033000000000000
#082350:0000333323000000
#0823b0:0000000000000013
#0833b0:0033000000000000
#083380:0000333323000000
#083380:0000000000000013
#0843b0:00230000
#087380:0000000000000013
#088380:00230000
#0893b0:0000000000000013
#0903b0:00230000
#089321:0000000000000013
#090321:00230000
#090371:00001232
#091371:32220000
#095381:0000000000130000
#0953b1:0000000000000023
#096351:0000000000130000
#096321:0000000000000023
#0973b1:0000000000130000
#098381:23
#098321:00130000
#098351:0023
#098380:00130000
#0983b0:0023
#103320:0000001300000000
#103350:0000000000230000
#106320:0000000000140000
#106360:0000000000000024
