This file was generated by Ched 2.7.0.0.
#TITLE ""
#ARTIST ""
#DESIGNER ""
#DIFFICULTY 0
#PLAYLEVEL
#SONGID ""
#WAVE ""
#WAVEOFFSET 0
#JACKET ""
#REQUEST "ticks_per_beat 480"
#00002: 4
#BPM01: 210
#00008: 01
#TIL00: ""
#HISPEED 00
#MEASUREHS 00
#02312:0000000000000013
#02315:0000001300130000
#02318:0013000000001300
#03212:00130013
#03215:0013000013000000
#03218:0000130000130000
#0321b:0000001300000000
#03216:13
#03312:0000130000001313
#0331b:13
#03315:0013000013130000
#03318:00000013003300001300000000001300
#03412:00000000130000000000001300001400
#0341b:0013
#03415:13000000000000000013000016000000
#03418:0013000000130000
#0341a:0000000000000024
#0381b:00000000130000000000001300000000
#03815:0013000000130000
#03812:0000000013001326
#03818:13000000000000000013000000130000
#0351a:0014002400000000
#03516:14140000
#0351b:0000000000130000
#03512:00002400000014000000001300001300
#03518:0000000000001316
#03515:00000000000000000000000000130000
#04012:00130000
#04015:0000000026000013
#04017:00000012000000000000000000000000
#0411a:00120012
#04114:0000000013001313
#04118:0000001200000012
#04112:0013000000000000
#04212:0013130000000000
#04215:0000000026001313
#0421c:00000000000000120000000000000000
#04312:0013130000000000
#04318:0000001200001212
#0431c:0012
#0431a:0000000000120000
#04314:0000000000001313
#04315:0013
#04718:1200000000130013
#04712:13000000000000000000001300130000
#04716:0000001300000012
#0471b:00001313
#04715:00000000000000000013000000000000
#0481b:0013130000000013
#04815:0026
#05118:0013001313130000
#05112:1212000000001400
#0511a:0000000000000014
#05116:00000000000000000000000000140000
#05212:13131313
#05215:0013001300130013
#0521b:0013000000000000
#05218:26000000000000000033000000330000
#05412:1316000013160000
#05418:0000001600000016
#0541b:00130013
#05415:26262626
#05612:1600000000000013
#05615:0013000000131300
#05618:0000001316000013
#0561b:00000000000000000000001300000000
#05610:41
#05715:13000033000000000000000000000000
#0571b:1300000000130013
#05718:00000000003300000000000013000000
#05712:0000001300130013
#06012:0000000013000016
#06018:00000000000000330013000013000000
#06015:00000000003300000000130000000000
#0601b:00000033000000000000001300001300
#06217:0000131300000000
#06215:0000000000001313
#06216:1400000013130000
#06212:14
#06218:00000000000000000000000000130013
#06312:1600130026132600
#06315:0000001300000013
#06318:00001300000000130016000000160013
#0631b:13000000001300000000001300000000
#06812:0013130000000000
#06815:0000001300000013
#06818:0013
#0681b:0000000000130000
#07315:00000000000000000000000000120000
#07317:00000000003232320032323200001200
#0731a:00000032000000000000000000000000
#07717:0012121212122200
#0701c:0000000000121200
#0701a:0000000000000012
#07017:00000000003232320000000000000000
#07014:00000000000000000032000000000000
#07010:00410000
#01514:00000013
#01519:00000013
#01512:2626000000000000
#01518:2626000000000000
#0161b:13131300
#01618:0013001300130000
#01615:00000000130000130000000000001300
#01612:26000013
#01610:41
#01712:13131300
#01715:0013001300130000
#01718:16000000130000130000000000001300
#0171b:00000013
#0181b:13131300
#01818:0013001300130000
#01815:00000000130000130000000000001300
#01812:16000013
#01912:13131300
#01915:0013001300130000
#01918:16000000130000130000000000001300
#0191b:00000013
#02012:1313000000001300
#02015:00000000130000130000000000001300
#02018:2600130000130000
#0201b:0000001313000000
#0211b:1313000000001300
#02112:1600001313000000
#02118:00000000130000130000000000001300
#02115:0000130000130000
#02218:1626000000130000
#02212:2616000000000000
#02215:0000001300000013
#02415:0013001300001300
#02418:0000130000130000
#02412:00131300
#0241b:0000000013001313
#02518:0013001300001300
#02515:0000130000130000
#0251b:0000130013000013
#02512:00001313
#0261b:13131313
#02615:0013001300001300
#02612:0000130013000013
#02618:0013000000130000
#0271b:00001300000000000000001300001300
#02715:00000013000000000000130000000000
#02718:00000000130000000013000000000000
#02712:13000000001300001300000000000000
#02815:00131600
#02818:0013160000001300
#02812:0000001300001613
#0281b:0000000000130000
#02918:00130016
#02912:0000160000130000
#02915:0013000016001300
#0291b:0000001300000000
#03015:00131600
#03018:0013160000001316
#0301b:0000001300130000
#03012:0000001300131600
#03014:0000000000000024
#03116:14000000140000000013000013000000
#03112:0016000013000016
#03118:00002400000016000000001300000000
#03114:0000002400130000
#0311a:00000000000000000000000000130000
#0311b:0000000000000013
#03110:0000000000000041
#0391a:0014000000000000
#03916:00000014000000000000130000000000
#03912:0000141300000013
#03918:00000000000000130000000000130000
#03914:00001313
#0391b:00000000000000000013001300000000
#0391c:0000000000000012
#0441c:0012
#04412:0013130000000000
#04415:0026
#04410:0041
#04518:12
#0451c:0012
#04512:0013000000001313
#04515:0013
#04618:12
#0461c:0012
#04615:0013130026000000
#04614:0000000000001313
#04918:0013130000000000
#04916:0000001200001200
#04912:0000000012000012
#04914:0000000000120000
#04919:0000000000000013
#05017:0012000000000000
#0501b:0013130000000013
#05016:00000012
#05015:0026
#05516:1212121200000000
#05518:00120012001200120000000000000000
#05512:0000142c
#0551a:0014
#05815:1300130000131300
#0581b:00001300130000000000001300000000
#05818:0000000016000016
#05812:0013000000000013
#05912:0000131300001313
#05918:0013000013130016
#0591b:13
#0611b:0013
#06115:00000000000000330013000013000000
#06118:00000000003300000000130000000000
#06112:00000033000000000000001300000000
#0611a:0000000000000024
#06116:0000000000000024
#06412:26131300
#0641b:1313
#06415:0000000000131316
#06418:00000000260000000000001300000000
#0651b:13
#06518:00001300000000000013000016001300
#06515:0000001300000000
#06512:0000000013000026
#0661b:1313
#06612:00131300
#06615:00001300000000000000001300001600
#06618:0000260000131300
#06712:13000000000000000000001300000000
#06715:00001300000000000013000016161300
#06718:0000001300130013
#0671b:0013
#06918:0013000000130000
#06915:0000001300000016
#0711c:0012000000000000
#07112:0000000000121200
#07114:0000000000000012
#07117:00000000003232320000000000000000
#0711a:00000000000000000032000000000000
#07412:00000000001200000012000012001200
#0741c:00121200
#07418:0000001200000000
#07416:00000000000000120000000000000000
#07417:0012000000000012
#0761c:0000120012001212
#07612:00000000001200000012000000120000
#07619:0000001200000000
#07616:00000000000000120000000000000000
#07615:00000000000000000000001200000000
#07618:0000000000120000
#00116:0012120000000000
#00112:0012
#00114:00000012
#00118:0032320032003200
#0021c:0012
#00218:0000000000001212
#00212:0000000032003232
#0031c:0012120000000000
#00318:0012
#0031a:00000012
#00312:0032320032003200
#00516:0012120000000000
#00512:0012
#00514:00000012
#00518:0032320032003200
#00412:0000000000001212
#00416:0012
#00418:0000000032003232
#0061c:0012
#00618:0000000000001212
#00612:0000000032003232
#0071c:0012120000000000
#00718:0012
#0071a:00000012
#00712:0032320032003200
#0781c:12
#07814:00120000
#0781a:0012
#07812:00000012
#0781f:11
#07916:0012000000120000
#07918:00120000
#07915:0000001200000000
#07912:0012
#07919:00000012
#0791c:0000000000000012
#08016:0012
#08014:0000000000120000
#08012:00000012
#0801c:0000000000000012
#0811c:0012000000000000
#08112:0000001200120000
#08118:0000000000000012
#0821c:0012001212000000
#08216:0000120000000012
#08416:00120000
#0841a:0012
#08414:0012
#08412:00000012
#08418:00000012
#08517:1200120000120012
#0851c:0012001200000000
#08512:00001212
#08616:0012
#08612:00220012
#08614:0000000000000012
#0861c:22
#08615:22
#08619:00220000
#08716:12
#0871c:1200000012120000
#0871a:0012000000000000
#08718:00120000
#08712:0000120000000012
#08714:0000001200000000
#08717:0000000000000012
#0881c:00120012
#08812:0012
#08816:00000012
#08814:0000000000000012
#08912:12
#08918:1200001200000000
#08916:0012000012120000
#08914:00120000
#0891a:00120000
#0891c:0000000012120012
#00916:0012
#00914:00000012
#00912:0012120000000000
#0091c:00000032
#00918:0032320000000000
#00816:0000000000001212
#00812:0012
#0081c:0000000000003232
#0101c:0012
#01018:0000000000001212
#01012:0000000000003232
#0111c:0012120000000000
#01118:0012
#0111a:00000012
#01112:00000032
#01116:0032320000000000
#01316:0012
#01314:00000012
#01312:0012120000000000
#0131c:00000032
#01318:0032320000000000
#01216:0000000000001212
#01212:0012
#0121c:0000000000003232
#0141c:0012
#01416:00000012
#01418:0000000000000012
#0751c:00000000001200000012000012001200
#07517:0000000000000012
#07512:00121200
#07516:0000001200000000
#07518:00000000000000120000000000000000
#0371b:0000130000001313
#03715:00000013003300001300000000001300
#03712:13
#03718:0013000013130000
#00012:1200000000001212
#00016:0012
#00018:0000000032003232
#09116:0022000000001814
#0911a:22
#09112:00222c00
#0911f:00000021
#09216:00001400000014001400140014000034
#09212:00000000140000140014000000000000
#0921a:0000000000140014
#09210:00000041
#0961a:00140000
#09614:00000000001400000000000000000000
#09618:0000001400000000
#09612:00000000000000140014140000000000
#09616:0000000014180000
#0981a:1414000014140014
#09816:00000000000000000014000014000000
#09812:00000000140014000000001400001400
#10412:1400000000000024
#10416:0014140000140014
#1041a:0000001400240000
#09316:00001414
#0931a:0014000000141400
#09312:14340000000000000000140000000000
#09416:14000000000000140014000014001400
#09412:1400181414140000
#0941a:0000000000140000
#0951a:0014000014140000
#09516:0000141400000000
#09512:1400000000180000
#0971a:00000000000000140014140000001400
#09712:0000140000281400
#09718:00000000001400000000000000000000
#09714:0000001400000000
#09716:0014
#10116:0000140000281414
#1011a:0014000000000000
#10112:00000000001400001800140000000000
#10018:0000161414000000
#10012:26141600001c0014
#10014:00000000000000140000000000000000
#10016:00340000000000000000000014000000
#1001a:14
#09912:00130000001600130016000014000000
#09918:0013260026132600
#09915:00000013000000000000001300000000
#0991b:1300001300000000
#0991a:0000000000000014
#09916:00000000000000000000000000340000
#1021a:1400000000000014
#10212:28141600001c0000
#10218:00000000160000140000000000000000
#10214:0000001414000000
#10216:00000014
#10312:00001400000014180000000014000000
#10316:00000000141800001418140000000000
#1031a:0000000000140014
#10516:0014001400000024
#10512:0000002400280000
#1051a:0024000000240000
#10612:14000000001400000000260016001600
#1061a:00000000140000140000000000000000
#10616:0024001400000000
#10614:0014
#10618:00000000000000000014260000000000
#10712:16161c00002c0000
#10718:1616000000000000
#10713:00000000001a00000000000000000000
#10714:0000001800000000
#10715:00000000000000160000000000000000
#10716:0014
#10717:00000000000000000012000000000000
#0361b:00130013
#03618:0013000013000000
#03615:0000130000130000
#03612:0000001300000000
#03617:13
#0531b:13131313
#05318:0013001300130013
#05312:2613000000000000
#05315:00000000000000000033000000330000
#07212:0012000000000000
#0721c:0000000000121200
#0721a:0000000000000012
#07217:00000000003232320000000000000000
#07214:00000000000000000032000000000000
#08312:0012001212000000
#08318:00120000
#08316:0000000000001212
#09012:00120000
#0901c:0012
#09019:0000000000120000
#09016:00000012
#09013:0000000000000012
#02352:0000000000000013
#02358:0053000000000000
#02355:0000005300000000
#03252:00130013
#0325b:0000002300000000
#03258:00530000
#03256:23
#03352:0000130000001353
#03358:0000000000000053
#03452:00130000
#03455:23
#0345a:0000000000000044
#0385b:00130000
#03858:23
#03852:0000000000000016
#06352:16
#02258:4656000000530000
#02252:0036000000000000
#02255:0000005300000053
#0275b:0000000000000013
#03058:0000000000000046
#03152:0036000000000000
#03158:0000004600000000
#0315b:0000000000000053
#04057:00000022000000000000000000000000
#0395c:0000000000000052
#04158:0000005200000052
#0425c:00000000000000220000000000000000
#04358:0000000000000052
#0445c:0052
#04558:52
#0455c:0052
#04658:52
#0465c:0052
#04758:52
#04756:0000000000000052
#04952:0000000000000052
#05057:0052000000000000
#05052:0012
#05552:0014
#0555a:0014
#05658:0000000000000053
#0575b:2300000000000053
#05752:0000001300530000
#05855:00530000
#0585b:00530000
#05852:0000000000000053
#05858:0000000000000016
#05952:0000005300000053
#05958:0053000000530046
#05955:0013000000130000
#0595b:0000001300000000
#0605b:0000000000000063
#06052:0000000000000036
#06256:24
#06252:24
#0645b:53
#06452:16530000
#06458:00160000
#06558:0000000000000053
#06552:0000000000000016
#0665b:23
#06652:00530000
#06658:00160000
#06758:0000000000000053
#06955:0000000000000056
#06952:0013000000130000
#0695b:0000001300000013
#07452:0000000000000052
#07457:0000000000000052
#07357:0000000000000052
#0765c:0000000000000052
#08752:0000000000000052
#0885c:00520000
#08956:0000000000520000
#0895c:0000000000000052
#0755c:0000000000000062
#07557:0000000000000062
#0375b:0000130000001353
#03755:0000000000000053
#09856:00000014
#09256:0000000000640000
#0925a:0000000000000054
#09352:5400000000640000
#0935a:0014000000002400
#09356:00000024
#09456:6400000000002464
#09452:6400000000140000
#0945a:0000000000640044
#0955a:0064004400640000
#09556:0044246400000000
#09552:2400000000380000
#0975a:0000000000540000
#09752:0000000000382400
#09952:00000064
#09958:00000016
#1025a:64
#10252:18
#1005a:54
#10052:16
#10152:0000000000640000
#10156:0000000000182400
#10652:0000000000162600
#10658:0000000000560000
#10656:0014000000000000
#02658:0053000000000000
#0265b:00230000
#0245b:0000000000000013
#02852:0000000000000013
#0365b:00130013
#03652:0000002300000000
#03655:00630000
#03657:23
#03552:0034000000000063
#0355a:0000004400000000
#05152:0052000000000000
#09652:0000000000540000
#09656:0000000000480000
#10356:0000000000540000
#10352:00000024
#10552:0000001400180000
#1055a:0014000000140000
#10556:0000000000000014
#10752:00000000001c0000
#0615a:0000000000000054
#06156:0000000000000054
#0685b:0000000000000013
#1045a:0000000000140000
#10452:0000000000000014
#0003c0:12
#000380:0000000032003232
#001380:0032320032003200
#002380:22
#002361:12
#002321:0000000032003232
#003321:0032320032003200
#004321:22
#0043c0:12
#004380:0000000032003232
#005380:0032320032003200
#006380:22
#006361:12
#006321:0000000032003232
#007321:0032320032003200
#008321:22
#0083c0:1200000000003232
#008380:0032
#0093c0:52000032
#009380:0032320032000000
#0103c0:22
#010321:1200000000003232
#010361:0032
#011321:52000032
#011361:0032320032000000
#012321:22
#0123c0:1200000000003232
#012380:0032
#0133c0:52000032
#013380:0032320032000000
#0143c0:22
#014321:12
#014361:0022
#016321:0000000013230000
#0163b1:00000013
#016381:0000000000000023
#0173b1:0000000013230000
#017321:00000013
#017351:0000000000000023
#018321:0000000013230000
#0183b1:00000013
#018381:0000000000000023
#0193b1:0000000013230000
#019321:00000013
#019351:0000000000000023
#020321:0013
#020351:0000000000230000
#0203b1:00000013
#020381:0000000000000023
#0213b1:0013
#021381:0000000000230000
#021321:00000013
#021351:0000000000000023
#022381:0016000000330000
#022351:0000003300000033
#023381:0033000000230000
#023351:0000003300000000
#0233b1:0000000000000013
#0243b1:0023000000000000
#024321:0000000000000013
#025321:0023000000000000
#025321:0000000000000013
#026351:23
#026381:0013002300000000
#0263b1:00530000
#0263b1:0000000000000013
#027381:23
#027351:00000000000016260000000000000000
#027351:00000000000000000000000016260000
#027321:0000000000000013
#028351:33
#028321:0023000000000000
#0283b1:0000000000000013
#029381:33
#0293b1:0023000000000000
#029321:0000000000000013
#030351:33
#030321:0023000000000000
#029380:0000000000000013
#0303b0:23
#0313b1:0000000000000013
#032361:53
#0323b1:0023000000000000
#032381:00132300
#0323b1:0000005300000000
#0323b1:00000013
#032381:0000000000000023
#032350:0000000000000013
#033320:23
#0333b0:00130000
#033380:00000000003323000000000000000000
#0333b0:0000000000132300
#033320:0000000000000013
#034350:33
#034320:0023000000000000
#033381:0000000000000013
#0343b1:23
#0343b0:00130000
#034380:0000002300000000
#034351:0000001300000000
#034321:0023
#035321:0000000000000013
#036371:53
#036321:0023000000000000
#036351:00132300
#036321:0000005300000000
#036321:00000013
#036351:0000000000000023
#036380:0000000000000013
#0373b0:23
#037320:00130000
#037350:00000000003323000000000000000000
#037320:0000000000132300
#0373b0:0000000000000013
#038380:33
#0383b0:0023000000000000
#037351:0000000000000013
#038321:23
#038320:00130000
#038350:0000002300000000
#038381:0000001300000000
#0383b1:0023
#0393c1:0000000000000012
#040371:00000052000000000000000000000000
#0403c1:0022
#041381:0000001200000000
#0413c1:0000000000220000
#041381:0000000000000012
#0423c1:00000000000000520000000000000000
#042381:0000000000000022
#043381:0000000000000012
#0443c1:0032
#045381:32
#0453c1:0032
#046381:32
#0463c1:0032
#047381:32
#0473c1:0000002200000000
#047320:0013000000000000
#047340:00000033000000000000000000000000
#047360:00230000
#047361:0000000000000012
#048321:0000000000520022
#049321:0000000000000012
#050371:0032000000000000
#050321:0022
#051321:0012000000000000
#051361:0000002200000000
#052381:0000132300000000
#0523b1:0013
#052381:00000000000000000033230000000000
#0523b1:00000013
#052381:00000000000000000000000000332300
#053351:0000132300000000
#053321:0013
#053351:00000000000000000033230000000000
#053321:00000013
#053351:00000000000000000000000000332300
#0563b1:13230000
#056320:00132300
#056380:0000000000000013
#0573b0:33
#057380:0023000000000000
#057321:0013000000000000
#057351:00000033230000000000000000000000
#057380:00000000133300000000000000000000
#0573b0:0000002300000000
#057320:0000000000130000
#057350:00000023
#0573b0:0000000000000013
#058380:23
#058350:00130000
#058320:0000003323000000
#0583b1:00130000
#058381:0000002300000000
#058320:0000000000000013
#059350:3323000000000000
#059381:0013000000000000
#0593b1:0000332300000000
#059320:0000001300000000
#059350:0000000033230000
#059381:0000000000130000
#0593b1:00000023
#059321:0000000000000013
#060371:0023000000000000
#0603b0:00001333000000000000000000000000
#060380:00230000
#060351:00000000133300000000000000000000
#060321:0000002300000000
#060380:00000000000013330000000000000000
#060350:0023
#0603b0:0000000000000013
#061360:0023000000000000
#061321:00001333000000000000000000000000
#061351:00230000
#061380:00000000133300000000000000000000
#0613b0:0000002300000000
#061351:00000000000013330000000000000000
#061381:0023
#0613a1:0000000000000014
#062361:54
#0623a1:0024000000000000
#061360:0000000000000014
#062320:54
#062360:0024000000000000
#062320:0000132300000000
#0623b0:0000000013230000
#0643b0:13
#064380:0023000000000000
#064320:00130000
#064350:0000002300000000
#065320:13230000
#065350:0053000000000000
#0653b1:00132300
#065381:0000005300000000
#065351:0000000000132300
#065381:0000000000000013
#0663b1:53
#066381:0023000000000000
#066321:00130000
#066351:0000002300000000
#0673b1:13230000
#067381:0053000000000000
#067320:00132300
#067350:0000005300000000
#067380:0000000000000013
#0683b0:0023000000000000
#068380:00130000
#0683b0:0000002300000000
#068320:00001323
#068350:0000000000330000
#068381:00000013
#0683b1:0000000000000023
#069351:13
#069321:0023000000000000
#069381:00130000
#0693b1:0000002300000000
#069351:0013
#069321:0000000000230000
#069381:00000013
#0693b1:0000000000000023
#069350:0000000000000016
#070320:00220000
#0703c1:00120000
#070371:00000000003232322200000000000000
#070340:00000000000000001232000000000000
#070370:0000000000322200
#070370:0000000000000012
#071370:0022000000000000
#071320:00120000
#071370:00000000003232322200000000000000
#0713a1:00000000000000001232000000000000
#071371:0000000000322200
#071371:0000000000000012
#072371:0022000000000000
#0723c1:00120000
#072371:00000000003232322200000000000000
#072340:00000000000000001232000000000000
#072370:0000000000322200
#072370:0000000000000012
#073370:0022000000000000
#0733a1:00001232000000000000000000000000
#073371:00220000
#073320:00120000
#073370:00000000003232322200000000000000
#0733c1:0012
#073371:00000000000000000032323222000000
#073371:0000000000000012
#0743c1:0022000000000000
#074371:0000000000122200
#074371:0000000000000012
#0753c1:0022000000000000
#074320:0000000000000012
#075370:0022000000000000
#075370:0000000000122200
#075370:0000000000000012
#076320:0022000000000000
#0753c1:0000000000000012
#076371:0022000000000000
#0763c1:0000000000000012
#077371:22
#0783c1:0000000000000012
#0793c1:0022000000000000
#080341:12220000
#0803a0:00122200
#080360:0000000000000012
#081360:0022000000000000
#081380:0000001200220000
#081320:0000000000000012
#082360:0022000000000000
#082360:0012
#082320:00000022
#0823c0:0000000000000012
#083380:0022000000000000
#083380:0012
#0833c0:00000022
#0833c0:0000000000000012
#0843c0:00220000
#0863c0:00001222
#087360:0000000012220000
#087320:0000000000000012
#088370:00220000
#0883c1:00120000
#088371:0022
#089361:0000000000120000
#089321:0000000000000022
#0893c0:0000000000000012
#090370:00220000
#091320:00000014
#092320:24
#0923a1:14240000
#092361:0000000000140000
#092321:0000000000003424
#0923a0:0000000000000014
#092360:00000000000000000000000000000034
#093360:24
#093321:14340000000000000000000000000000
#093361:0024000000000000
#093361:00140000
#093321:0000002400000000
#0933a0:0000001424000000
#093320:0000000000140024
#093360:00000034
#0933a1:00000014
#093361:0000000000000024
#094361:14
#0943a1:0034240000000000
#094320:14
#094360:0024000000000000
#0943a1:0000000000140024
#094361:00000034
#094360:0000000000000014
#095320:34
#095360:0024000000000000
#0953a1:0014002400000000
#095361:00340000
#095360:0000001400000000
#095320:0024
#0953a0:0000000000140000
#095360:0000000000000024
#095321:0000000000000014
#096361:24
#0963a0:14
#096360:0024000000000000
#096321:0014000000000000
#096361:00240000
#096321:0000000000140000
#096361:0000000000000024
#0963a0:0000000000000014
#097360:24
#097321:14
#097361:0024000000000000
#0973a0:0014000000000000
#097360:00240000
#0973a0:0000000000140000
#097360:00000024
#097321:00000014
#097361:0000000000000024
#098361:1424000000000000
#098361:0000142400000000
#099321:00000014
#099361:00000000000000000000000000342400
#1003a1:14
#100361:00342400000000000000000000000000
#1003a1:00000014
#100361:0000000000000054
#1013a1:24
#101320:14240000
#101360:0054000000000000
#1013a0:0000001424000000
#101320:0000000000140024
#101360:00000054
#1023a0:14
#102360:0024000000000000
#102320:00000014
#102360:0000000000000054
#103320:24
#1033a1:14240000
#103361:0054000000000000
#103361:0000000000140024
#103321:00000054
#104361:14
#1043a1:0024000000000000
#104321:00142400
#104361:0000003400000000
#104360:0014
#1043a0:0000000000240000
#104360:00000014
#104320:0000000000000024
#105360:14
#1053a0:0024000000000000
#105360:00140000
#105320:0000002400000000
#105360:0014
#1053a0:0000000000240000
#1053a0:0000000000000014
#106360:24
#106320:0014000000000000
#106360:00240000
#106380:0000000000160026
#106320:00000056
