This file was generated by Ched 2.7.0.0.
#TITLE ""
#ARTIST ""
#DESIGNER ""
#DIFFICULTY 0
#PLAYLEVEL
#SONGID ""
#WAVE ""
#WAVEOFFSET 0
#JACKET ""
#REQUEST "ticks_per_beat 480"
#00002: 4
#BPM01: 210
#00008: 01
#TIL00: ""
#HISPEED 00
#MEASUREHS 00
#01218:1414
#01318:1414
#01412:1414
#0161a:1414
#01614:00140014
#01610:41
#0221a:14
#02212:14
#03018:0000000000000014
#03012:0014000000000000
#0301a:0000001400000000
#03014:0000000000140000
#04012:14
#04015:00000014
#01114:1414
#01014:1414
#0091a:1414
#0081a:1414
#01718:1414
#01712:00140000
#01812:1414
#01818:00140014
#01914:1414
#0191a:00140000
#0201a:1414
#02014:00140014
#02118:1414
#02112:00140000
#03112:0014000000000000
#0311a:0000001400000000
#03110:0000000000000041
#03318:00140000
#03314:0014
#03718:00140000
#03714:0014
#0421a:14
#04217:00000014
#04412:14
#04415:00000014
#04410:0041
#0461a:14
#04617:00000014
#04814:14
#04812:00000014
#05018:14
#0501a:00000014
#05214:1414
#05218:00140014
#05312:1414
#0531a:00140014
#05412:14
#05512:14
#0551a:14
#05618:0000140000140000
#05614:00001414
#05612:24
#05610:41
#0571a:14
#05714:0000140000140000
#05718:00001414
#05812:14
#05818:0000140000140000
#05814:00001414
#0591a:14
#05914:0000140000140000
#05918:00001414
#06012:14140000
#06018:00001414
#06114:14140000
#0611a:00001414
#06212:14
#06218:00140000
#06214:0014
#0621a:00000014
#06312:14
#06318:00140000
#06314:0014
#0631a:00000014
#06414:0014
#06418:00000014
#06412:24240000
#0641a:24240000
#06514:1414
#06518:00140000
#0651a:0000000000000024
#06512:0000000000000024
#06618:0014
#06614:00000014
#06612:00240000
#0661a:00240000
#06718:1414
#06714:00140000
#06812:00140000
#0681a:0014
#06814:00000014
#06818:0000000000000014
#06914:0014000000000000
#06918:0000001400000000
#06912:0000000000140000
#0691a:0000000000000014
#07012:00140000
#07018:00001414
#07014:0000000000140014
#07010:00410000
#0711a:00140000
#07114:00001414
#07118:0000000000140014
#07212:00140000
#07218:00001414
#07214:0000000000140014
#0731a:00140000
#07314:0000000014000014
#07318:00000014
#0741a:00140000
#07414:00001414
#07418:0000000000140014
#07512:00140000
#07518:00001414
#07514:0000000000140014
#0761a:00140000
#07614:00001414
#07618:0000000000140014
#09214:1400001400000000
#09218:00141400
#09212:00000014
#09210:00000041
#09318:1400001400000000
#09314:00141400
#0931a:00000014
#09414:1400001400000000
#09418:00141400
#09412:00000014
#09518:1400001400000000
#09514:00141400
#0951a:00000014
#0961a:14
#09614:00141400
#09618:00000014
#09718:14
#09712:00141400
#0971a:00000014
#09814:14
#09818:00140000
#09812:0014
#0981a:00000014
#09914:14
#09918:00140000
#09912:00001424
#0991a:00000024
#10018:00140014
#10014:0014
#10012:24
#1001a:24
#10114:14
#10118:00140000
#10112:0000000000240000
#1011a:0000000000240000
#10214:00140014
#10218:0014
#1021a:24
#10212:24
#10318:14
#10314:00140000
#1041a:1400000000000014
#10412:00140000
#10418:0014
#10414:0000000000140000
#10512:0014000000000000
#10518:0000001400000000
#10514:0000000000140000
#1051a:0000000000000014
#10612:0014000000000034
#10618:0000001400000000
#10614:0000000000140000
#02612:14
#0261a:14
#0231a:0000000000000014
#02312:0000000000000014
#03514:0014000000000000
#03518:0000001400000000
#02718:00000014
#02714:0000000000000014
#02914:00000014
#02918:0000000000000014
#02812:0000001400000000
#0281a:0014000000000000
#0781f:11
#01512:24
#0151a:24
#0911a:00000024
#0911f:00000021
#10712:3434343434000000
#04052:64
#04055:00000024
#0425a:54
#04257:00000024
#04452:64
#04455:00000024
#0465a:54
#04657:00000024
#04854:54
#04852:00000024
#05058:64
#0505a:00000024
#06758:0064
#0675a:0000000000000014
#10354:00540000
#10352:0000000000140000
#10654:0000000000640000
#10752:0000000000140000
#0003a0:14
#001380:0024
#002320:14
#003340:0024
#0043a0:14
#005380:0024
#006320:14
#007340:0024
#024380:0000000000000014
#0253a0:0034343424000000
#026340:0000000000000014
#027320:0034342400000000
#028380:0000000000140034
#0293a0:0034343424000000
#031320:0000000000000014
#032340:0034
#033320:24
#0343a0:14
#034380:0000000000000024
#035320:0000000000000014
#036340:0034
#037320:24
#0383a0:14
#038370:0000000000000034
#0393a0:0024
#040320:14
#040350:00000054
#041320:0024
#0423a0:14
#042370:00000054
#0433a0:0024
#044320:14
#044350:00000054
#045320:0024
#0463a0:14
#046370:00000054
#0473a0:0024
#048340:14
#048320:00000054
#049340:0024
#050380:14
#0503a0:00000054
#051380:0024
#067380:0014
#0673a0:0000000000000024
#078320:14
#079350:34
#080320:34
#081350:24
#0823a0:14
#083370:34
#0843a0:34
#085370:24
#086320:14
#087340:24
#086381:14
#0873a1:24
#0883a1:14
#089381:34
#0903a1:24
#088340:14
#089320:34
#090340:24
#103340:00140000
#103320:0000000000240000
#106340:0000000000140000
#106320:0000000000000034
#107320:3434343434240000
