This file was generated by Ched 2.7.0.0.
#TITLE ""
#ARTIST ""
#DESIGNER ""
#DIFFICULTY 0
#PLAYLEVEL
#SONGID ""
#WAVE ""
#WAVEOFFSET 0
#JACKET ""
#REQUEST "ticks_per_beat 480"
#00002: 4
#BPM01: 115
#00008: 01
#TIL00: ""
#HISPEED 00
#MEASUREHS 00
#00119:14
#00213:14
#00319:14
#00413:14
#0051a:14
#00510:0041000000000000
#0061a:14
#00714:14
#00814:14
#00918:14
#01018:14
#01112:14
#01212:14
#01318:14
#01310:41
#01514:14
#01614:14
#02212:0016
#02218:26
#0221f:21
#02412:16
#02418:0016
#02618:1616
#0281a:14
#02814:0014
#02918:14
#02912:0014
#03012:0016
#03018:26
#03212:16
#03218:0016
#0341a:1414
#03514:1414
#03818:0016
#0381a:24
#03812:24
#03810:41
#03912:1616
#04112:0016
#04418:0016
#04410:41
#04512:16
#04518:0016
#04718:14
#04814:14
#0491a:14
#0171f:11
#01418:24
#02114:28
#02712:26
#04612:26
#04018:00363636
#04212:00363636
#04312:00363636
#02310:41
#03110:41
#0173a0:14
#0183a0:24
#019320:14
#020320:24
#023380:1626
#025320:1626
#027320:16362600
#031380:1626
#033320:1626
#036380:14342400
#037320:14342400
#040380:16363636
#041360:26
#042320:16363636
#043340:36
#043320:00363636
#044320:26
#050340:14000034
#051340:34000024
