This file was generated by Ched 2.7.0.0.
#TITLE ""
#ARTIST ""
#DESIGNER ""
#DIFFICULTY 0
#PLAYLEVEL
#SONGID ""
#WAVE ""
#WAVEOFFSET 0
#JACKET ""
#REQUEST "ticks_per_beat 480"
#00002: 4
#BPM01: 115
#00008: 01
#TIL00: ""
#HISPEED 00
#MEASUREHS 00
#0001b:13000013
#00015:000000130000000013000000130000000000000000000000
#00018:000013000013000000000013000000130000000000000000
#00012:13000013
#00118:230000000000130000000000130000000000130000000013
#00115:000000000000000000130000000000130000000013000000
#00112:0013000000000000
#0011b:000000130000000000000000000000000000000013000000
#00915:00000000130000130000000000000000
#0091b:000000130000000000000000000013000000000000000000
#00918:130000000000000000000000000000000013000000130000
#00912:000000130000000000000000000013000000000000000000
#0101b:130000000000000000000013000013000000000000000000
#01014:0013001300000000
#01019:001300001300000000000000
#01017:000000000013000000000000000000000000000000000000
#01012:13130000
#01015:000000000013
#01018:000000000000000000000000000000000013000000130000
#01016:0013
#0111b:000000130000000000000000000000000013000000000000
#01118:000000000000130000000013000013000000000000130000
#01115:0013000000131300
#01112:000000000000130000000013000000000000000000000000
#0121b:1313
#01212:13130013
#01218:0000001300000013
#01215:0013000000130000
#01318:130000000000130000000000130000000013000013000013
#01315:000013000000000013000000000000000000000000130000
#0131b:0013001300000000
#01312:000000000013000000000013000013000000000000000000
#01310:41
#0151b:13131300
#01518:000013000000000013000000000000000013000000130013
#01512:0013001300000000
#01515:000000000013000000000013000013000000000013000000
#01615:130000000013000000130013000000000013000000000013
#0161b:000000130000000000000000000000130000000013000000
#01618:000000001300130000130000
#01612:0013000000130013
#01718:130000000013000000000013000013000000000013000000
#01712:0000130013000013
#01715:000013000000000013000000000000000013000000000013
#0171b:0013001300000000
#0171f:11
#0181b:1313
#01815:000013000000000000130013000013000000000000130000
#01818:000000130013000013000000000000000013000000000000
#01812:00130000
#01918:130000000013000000000000000000000013000000000000
#01915:0013000000000013
#01912:000000000013000000000000130000000013000000000000
#0191b:0000001300130000
#02012:130000000013000000000000000000000000000000000013
#02018:000000130000000000130000000000000013000000000000
#0201b:000000000013000000000000130000000000000000130000
#02015:0000000000131300
#02118:120000120000000012000000120000000000000013000000
#02116:000012000012000000000012000000120000000000000000
#0211b:000000000000000000000000000000000000130000000013
#02115:0000000000000013
#02112:00000013
#02218:000000130000000000000013000013000000000000000013
#02212:230000000000130000000013000000000000000000130000
#02215:000000000000000013000000000000130013000000000000
#0221b:00130013
#0221f:21
#02315:130000000000130000130000000000000000130013000000
#02318:0013130000130000
#02312:0013
#02310:41
#02418:130000000000130000130013000000000000000013000000
#0241b:0013000000000000
#02412:130000000000000000000000000000130000000013000000
#02415:00000013
#02518:000013000000000013000000000000000000000000130000
#0251b:000000000013000000000013000000000000000000000000
#02515:000000000000001300001300
#02512:000000000000000000000000000000000013000000000000
#02612:1300001300000000
#02618:000013000013000000130000000013000000000000130000
#02615:000000130000130000000013000000130000000013000013
#0261b:000000000000000000000013000000000013000000000000
#02715:001600001600000000000000
#02712:000000001600260000000000230000000000000000130000
#0271b:0000000023130000
#02719:00000013
#02717:0000000000000013
#02718:260000000016000000000000
#02716:0000000000130000
#02714:00000013
#0281b:0000001300001300
#02815:0000000000000013
#02818:000000000000000000000000000000000000000000000013
#02812:0013000000000000
#02816:0000001300000000
#02915:1300001313000013
#0291b:000000000013000000000000000000130000000000000000
#02918:000000000000000000000013000000000000130000000000
#03012:13130000
#03017:00130000
#03016:0013
#0301b:0013
#03019:0000000000000013
#03014:0000000000000013
#0311b:130000000000000000130013000000000000000000000000
#03119:0013000000000000
#03117:00130000
#03115:000000000000000000000000000000000000000000000013
#03118:0000000000000013
#03116:130000000000000000130013000000000000000000000000
#03114:0013000000000000
#03112:00130000
#03110:41
#03218:1300130013001313
#03212:0013000013130000
#03215:0000001300000000
#0321b:0000000000130000
#0331b:1300000000130013
#03315:0013001300130013
#03318:00131313
#03312:13001313
#03412:13000013
#03415:000013000013000000000000000013000000000000130000
#03418:130000130000000000130013000000130000000013000013
#0341b:00130000
#03512:1300000000130000
#03515:0013000000000000
#03518:00130000
#0351b:0000001300001300
#03516:0000001300001300
#03612:13001313
#0361b:000000130000000000000000000000130000000013000000
#03614:00130000
#03619:0000001300000000
#03616:000000000013
#03718:000013000000000000000000000000130000000000000000
#03712:000000000013000000000000000000000000130000130000
#0371b:001300
#03715:000000000000000000000013000000000000000000000000
#0391b:000000130000000000001300
#03912:1300001300001300
#03917:1300001300001300
#03914:0013000000000000
#03916:000000130000000000001300
#03919:0013000000000000
#0401b:0013000000000000
#04018:000000130000001300001300
#04015:000000130000000000000013000000130000000000000013
#04012:00130000
#04118:13131313
#04112:0013001300130013
#04115:00131313
#0411b:0013001300130013
#04218:130000000000000000000000000000000000000013000013
#0421b:0013000000001300
#04217:0000130000130000
#04216:000000000000000000000013000000000000000000000000
#04215:13000013
#04212:000000000013
#04315:1300131313000013
#04318:0013130013131300
#0431b:0000001300000013
#04312:0013000000131300
#04416:001300001300001300001400
#0441b:0013001300130000
#04412:00131313
#04417:000000000013000000000013000000000013000000000000
#04410:41
#04517:13131300
#0451b:000013000000000013000000000000130000000000000000
#04516:0013001300000000
#04512:130000000013000000000013000000130000000000000000
#04518:00000013
#04515:0000000000000023
#05018:120000000012000012000000000000000000000000000000
#0501a:000000000000000000000000120000000012000000000000
#0501c:0000000000000012
#00212:1300000000000013
#00215:0000000000130000
#0021a:0000001300000000
#00219:00130000
#00218:0013000000000000
#00612:000013000000000000000000000000000000000000130000
#0061b:000000000000000000000000000013000000000000130000
#00615:000000000000130000000013000000000000130000000000
#00618:000000000013000000130000000000000013000000000000
#03816:00130000
#03817:0013
#03812:2313
#03814:0000000000000013
#0381b:23130000
#03819:0000000000000013
#03810:41
#04612:230000130000000000000000000000000000000013000000
#04615:000000000000130000130000130000000000130000000013
#04618:000013000013000000000013000000130000000013000000
#0461b:231300
#04715:0013000000000013
#04714:00130000
#04713:0000001300000000
#04718:0000000000131300
#0471b:13
#04712:0013
#0481b:230000130000000000000000000000000000000013000000
#04818:000000000000130000130000130000000000130000000013
#04815:000013000013000000000013000000130000000013000000
#04812:231300
#04918:0013000000000013
#04919:00130000
#0491a:0000001300000000
#04915:0000000000131300
#04912:13
#0491b:0013
#05116:120000000012000012000000000000000000000000000000
#05114:000000000000000000000000120000000012000000000000
#01415:130000000000130000000000130000000013000000000013
#0141b:000000000013000000000013000013000000000013000000
#01412:000000130000000000130000000000000000000013000000
#01418:001300001300000000000000
#00815:000000000013000000130000000000000013000000000013
#0081b:00130000000000000000000000001300
#00812:000000000000001300001300
#00818:00000000130000130000000013000000
#0071b:0013130000000000
#00715:000000000000130000000000130000000000000000001300000000000000000000000000130000000000000000130000
#00718:0000000013000013
#00712:0000000000130000
#00318:130000000000000000130000000000130000000013000000
#0031b:0013000000000000
#00312:000000130000000000000000000000000000000013000000
#00315:230000000000130000000000130000000000130000000013
#0041b:1300000000000013
#00418:0000000000130000
#00413:0000001300000000
#00414:00130000
#00415:0013000000000000
#00518:000000130000130000000013000000000000130000000013
#00515:0000000013000013
#00512:0013130000000000
#0051b:0000000000130000
#00510:0041000000000000
#00158:0053
#00155:0000000000530000
#00252:53
#01155:00000053
#01158:00530000
#01152:00530000
#0125b:5353
#01252:00630063
#01855:000000000000000000130000000053000000000000000000
#0185b:1313
#01852:00130000
#01858:0013000000000000
#02052:53
#0205b:0063
#02252:53
#0225b:00530000
#02355:5300005300000000
#02358:00630000
#02352:0023
#0245b:0013000000000000
#02458:00130000
#02452:0000000000130000
#02455:00000013
#02558:0000000000000053
#02655:0000000000630000
#02758:16
#02752:00161300
#0275b:0013
#02757:0000000000000053
#02852:0053000000000000
#02856:0000005300000000
#0285b:0000005300000000
#02955:5353
#02952:000000000013000000000000000000000000000000000000
#0295b:000000000013000000000000000000000000000000000000
#02958:00000053
#0305b:1353
#03052:13530000
#03056:0053
#0315b:000000000000000000000053000000000000000000000000
#03156:000000000000000000000053000000000000000000000000
#03258:53
#03252:0000000000530000
#0335b:5300000000130013
#03352:00001313
#03458:0000000000630000
#0355b:0000005300001300
#0385b:13630000
#03852:1363
#03857:0063
#03957:0000005300000000
#03952:0000005300000000
#0395b:000000000053
#03956:000000000053
#04057:13
#04052:13
#04058:000000130000000000001300
#04055:000000000000000000000013000000130000000000000000
#04158:1313
#04155:00130013
#04258:130000000013
#04257:0000130000130000
#04256:000000000000000000000013000000000000000000000000
#04355:1300000013000053
#04358:00130053
#0435b:0000000000000053
#04352:00000053
#0445b:0013001300130000
#04452:13131313
#04557:13131300
#04556:0013001300000000
#04655:0063
#04658:0000000000630000
#0475b:63
#04758:00000053
#04752:0023
#04858:0053
#04855:0000000000530000
#04952:53
#0495b:0023
#04955:00000063
#01758:000000000000006300000000
#01752:00131300
#0175b:0013001300000000
#01555:000000000000005300000000
#0155b:13131300
#01552:0013001300000000
#0145b:000000000000005300000000
#01455:13131300
#01452:0013001300000000
#01352:000000000000006300000000
#01358:13131300
#0135b:0013001300000000
#01056:0053
#01054:0013001300000000
#01052:00130000
#00858:00000000000000530000000000000000
#0075b:00630000
#00755:00000000630000000000000000000063
#00358:0000000000630000
#00355:0063
#0045b:63
#00052:00000053
#00558:000000000000530000000000000000000000000000000053
#00552:00530000
#00655:000000000000000000000063000000000000000000000000
#000320:00000013
#001350:23
#001380:0013
#0013b0:0000000000230000
#001351:0000000000130000
#001321:00000023
#002321:13
#002351:0023
#0023b0:0000000013230000
#002380:0000000000001323
#003350:0013
#003320:0000000000230000
#003381:0000000000130000
#0033b1:00000023
#0043b1:13
#004381:0023
#004320:0000000013230000
#004350:0000000000001323
#005380:00130000
#0053b0:0000002300000000
#005321:00130000
#005351:0000002300000000
#005381:000000000000000000000000000000000000000000000013
#0063b1:002300000000000000000000
#006351:000000000000000000000013000000000000000000000000
#006321:000000000000002300000000
#007351:00130000
#007321:0000002300000000
#0073b0:00130000
#007380:0000002300000000
#007350:00000000000000000000000000000013
#008320:00230000000000000000000000000000
#008380:00000000000000130000000000000000
#0083b0:000000000000002300000000
#009380:00000000000013230000000000000000
#009350:0000000000001323
#010360:0013
#010320:000000000000000000000000000000000023000000000000
#011380:00130000
#0113b0:0000002300000000
#011321:00130000
#011351:0000002300000000
#011351:00000013
#011321:0000000000000023
#0123b1:13
#012381:00230000
#012320:00130000
#012350:0023
#0123b1:0013
#012381:00000023
#012320:00000013
#013350:23
#013320:000000000000001300000000
#013350:000000000000000000000000000000000023000000000000
#0143b0:000000000000001300000000
#014380:000000000000000000000000000000000023000000000000
#015350:000000000000001300000000
#015320:000000000000000000000000000000000023000000000000
#017380:000000000000001300000000
#0173b0:000000000000000000000000000000000023000000000000
#018350:000000000000001300000000
#018320:000000000000000000000000000000000023000000000000
#0183b0:000000000000000000000000000000000000000013230000
#018320:000000000000000000000000000000000000000000000013
#019320:23
#0193b0:000013230000000000000000000000000000000000000000
#019350:000000000000000013230000000000000000000000000000
#019380:000000000000000000000013230000000000000000000000
#019350:000000000000000000000000000013230000000000000000
#0193b0:000000000000000000000000000000000000000013230000
#019380:000000000000000000000000000000000000000000000013
#020380:23
#020321:13
#020351:0023000000000000
#020321:000000000000000013230000000000000000000000000000
#020351:000000000000000000000013230000000000000000000000
#0203b0:0013
#020380:0000000000230000
#022320:13
#022350:0023000000000000
#0223b0:00130000
#022380:002300
#023350:13
#023320:0023000000000000
#023380:00130000
#0233b0:0000002300000000
#023351:0000001300230000
#023321:0053
#0233b1:000000000000000000132300
#024351:000013230000000000000000000000000000000000000000
#024321:000000000013230000000000000000000000000000000000
#024351:000000000000000000130023000000000000000000000000
#024381:000000000000000000000000000013230000000000000000
#0243b1:000000000000000000000000000000000013230000000000
#025321:132300000000000000000000
#025351:000000130023000000000000000000000000000000000000
#025321:000000132300000000000000
#025351:000000000000000000130023000000000000000000000000
#0253b1:000000000000132300000000
#025381:000000000000000000000000000000130023000000000000
#0253b1:000000000000000000132300
#025381:0000000000000013
#0263b1:23
#026351:0000000000130000
#026321:000000000000000000000000000000000023000000000000
#027371:0000000000000013
#0283b1:0033003300000000
#028371:0000000000230000
#028320:0013000000230000
#028360:0000003300000000
#029350:13
#029320:000000000023000000000000000000000000000000000000
#029350:0013
#029320:00000023
#029381:00000013
#0303b1:23
#030321:00130023
#030361:0033
#0303b0:0013
#030370:00000023
#0313b0:000000000000000000000013000000000000000000000000
#031370:00000023
#031361:000000000000000000000013000000000000000000000000
#031321:00000023
#032381:13
#0323b1:0023000000000000
#032321:0000000000130000
#032351:00000023
#0333b1:13
#033381:0023000000000000
#034321:000000000000000000130023000000000000000000000000
#034381:0000000000130000
#0343b1:00000023
#0353b1:0000001300000000
#035371:0000000000230000
#0353b1:000000000000000000000000000000000000000000000013
#0363b1:23
#036321:000013230000000000000000000000000000000000000000
#036391:000000000013230000000000000000000000000000000000
#036341:000000000000000013230000000000000000000000000000
#036371:000000000000000000000013230000000000000000000000
#036361:000000000000000000000000000013230000000000000000
#036371:000000000000000000000000000000000013230000000000
#037351:132300000000000000000000
#037381:000000130023000000000000000000000000000000000000
#037321:000000132300000000000000
#0373b1:000000000000000000130023000000000000000000000000
#037351:0000000013230000
#0373b1:0000000000001323
#0383b1:00130023
#038371:0033
#038320:0013
#038360:00000023
#039320:0000001300000000
#039360:0000000000230000
#039371:0000001300000000
#0393b1:0000000000230000
#039361:000000000013
#040321:23
#0393b0:000000000013
#040370:23
#0403b0:000000000000000000130023000000000000000000000000
#040320:000000000000000000132300
#042320:0013230000000000
#0423b0:000000000000000000130023000000000000000000000000
#042320:000000000000000000000000000013230000000000000000
#043380:00000013
#0433b0:0000000000000033
#044380:23
#043321:00000013
#043351:0000000000000033
#044321:23
#046351:0013
#046321:0000000000230000
#046380:0000000000130000
#0463b0:00000023
#0473b0:13
#047370:0023
#047321:0013
#047351:0000000000230000
#047381:00000013
#0473b1:0000000000000023
#048381:0013
#0483b1:0000000000230000
#048350:0000000000130000
#048320:00000023
#049320:13
#049360:0023
#0493b1:0013
#049381:0000000000230000
#049351:00000013
#049321:0000000000000023
#050361:000000000000000000000000000000001200000000000000000000520000000000520000000000002200000000000000000000000000000000000000000000000000000000000000000000000000000000000000000000000000000000000000000000000000000000000000000000000000000000000000000000000000000000000000000000000000000000000000000000000000000000000000000000000000000000000000000000000000000000000000000000000000000000000000
#050351:0000000000525200000000000000000000000000000000000000000000000000
#050361:0000001222000000
#050361:000000000000000000000000000012000022000000000000
#050341:0000000000000000000000000000000000000000000000001252525222000000
#050351:00000000000000000000000000000000000000000000000000000000000000000000000000000000000000000000000000520052005200520000000000000000
#051381:000000000000000000000000000000001200000000000000000000520000000000520000000000002200000000000000000000000000000000000000000000000000000000000000000000000000000000000000000000000000000000000000000000000000000000000000000000000000000000000000000000000000000000000000000000000000000000000000000000000000000000000000000000000000000000000000000000000000000000000000000000000000000000000000
#051391:0000000000525200000000000000000000000000000000000000000000000000
#051381:0000001222000000
#051381:000000000000000000000000000012000022000000000000
#0513a1:0000000000000000000000000000000000000000000000001252525222000000
#051391:00000000000000000000000000000000000000000000000000000000000000000000000000000000000000000000000000520052005200520000000000000000
