This file was generated by Ched 2.7.0.0.
#TITLE ""
#ARTIST ""
#DESIGNER ""
#DIFFICULTY 0
#PLAYLEVEL
#SONGID ""
#WAVE ""
#WAVEOFFSET 0
#JACKET ""
#REQUEST "ticks_per_beat 480"
#00002: 4
#BPM01: 115
#00008: 01
#TIL00: ""
#HISPEED 00
#MEASUREHS 00
#0001b:13000013
#00018:000000130000000013000000130000000000000000000000
#00015:000013000000000000000013000000130000000000000000
#00012:000000000013000000000000000000000000130000000000
#0011b:00130000
#00115:0000001300000000
#00118:230000130014
#00114:00000014
#00112:000000130000000000000000000000000000000000000013
#00515:0013000000000013
#00512:0000000000130000
#00518:0000003300001300
#0051b:00130000
#00510:0041000000000000
#00918:000000000000130000000000000000000013000000000000
#00915:000000130000000000000000000013000000000000000000
#0091b:13
#00912:0000001400000000
#0091a:00000000000000140000000000000000
#0101b:130000000000133300000000
#01018:0013000000000013
#01015:000013000013000013000013000000000000000013000000
#01019:00130000
#0101a:0000001300000000
#01112:0013000000000000
#01115:000000000000001300130000
#01118:000000000000000000330000000000000013000000000000
#0111b:00130000
#01218:13
#01215:0013
#01212:13
#0121b:0013
#0131b:130000000000003300000000
#01315:001300000000000000000000
#0131a:0013000000000000
#01314:000000000013000000000000000000000000000000000000
#01319:00130000
#01313:001300
#01318:0000001313000000
#01312:000000000000000000000013000000000000000000000000
#01310:41
#01518:130000130000000000000000000033000000000000130000
#01512:001300000000000000000000
#01513:000000000013000000000000000000000000000000000000
#01519:00130000
#01514:001300
#0151a:0000001300000000
#01515:000000000000000000000013000000000000000013000013
#0151b:0013
#01618:130000000000000000130000130000000013000013000000
#0161a:000000000014000000000000000000000000000000000000
#01612:0014000000130000
#01615:000000000000000013000013000000000000130000130000
#0161b:000000000000000000000000000000000000000000000013
#01815:1300000013000013
#01818:000000000000000000000013000000000000000013000013
#01812:000000000000000000130000000033000000000000000000
#01819:001300
#01813:00130000
#0181a:000000000013000000000000000000000000000000000000
#01814:0013000000000000
#0181b:001300000000000000000000
#01918:0000001313000013
#01915:130000000000000013000013000000000000000013000013
#01912:000033330000000000000000000000000000000000000000
#0191b:000000000000000000000000000033330000000000000000
#02018:130000000000000013000013000000000013000000130000
#02015:000000000013000000130000130000000000130000000013
#0211b:00000013
#02115:000000000013
#02118:0000000000000013
#02112:000000000000000000000000000000000000000000000013
#02214:00140000
#02218:230000001400000000130000
#02212:000000000000000000000013000000000000130000000000
#0221b:0000000000000013
#02215:000000000000000000000000000033000000000000000013
#0221f:21
#02318:130000130000000000001400
#02314:00000014
#0231b:0013001300000000
#02310:41
#0241b:130000000013
#02415:000000130000000000000000000013000013000000000000
#02418:0000130000131300
#02412:130000000000000000140000000000000000000013000000
#0241a:000000000000000000000014000000000000000000000000
#02612:1300001300001300
#02618:000013000013000000000000130000000000000000000000
#02615:0013130000130013
#0261b:0000001300000000
#02718:260016001600000000000000260000000000000000130000
#02712:000000000000260016001600000000130000000000000000
#02715:00000013
#02812:00000013
#02815:0000000000000013
#02818:000000000000000000000000000000000000000000000013
#0281b:0000001300000000
#02915:130000000000000000000013000000130000000000000000
#02918:0000001313001300
#0291b:0000000000000033
#0301b:0013
#03015:0000000013000013
#03018:00130000
#03012:00130000
#03118:130000000000130000000000000000000000000000000013
#03115:0013001300000013
#0311b:000000000000000000000013000000000000000000000000
#03110:41
#03215:1300001300000000
#03218:0000130013000013
#03212:0000000000130000
#03312:0000000000140014
#03315:1300001300000000
#03318:00130000
#0331a:00001414
#03415:000013000013000000000000000013000000000000130000
#03418:130000130000130000000000000000130000000000000013
#03412:0000001400000000
#0341a:000000000000000000000014000000000000000000000000
#03512:13
#03515:0013000000001300
#03518:00130000
#0351b:000000000000000000130000000000000000000000000013
#03618:001300001300000000000000
#0361b:000000000013000000000013000000000000000000000000
#03619:000000000000001300000000
#03617:000000000000000000000000000000000013000000000000
#03615:13130000
#03612:0013001300001300
#03616:0013
#03614:0000000000130000
#04018:000000130000000000000000000013000000000000000013
#04015:0000130000130000
#04012:000000000000000000000014000000000000000014000000
#0401a:0000001400001400
#04115:1300001300000013
#0411b:00130013
#04112:0013
#04118:0013000000130000
#04212:130000000000000000000014000000000000000014000000
#04218:000000130000000000000000000013000000000000000013
#04215:0000130000130000
#0421a:0000001400001400
#04315:1313
#0431b:0013000000001300
#04318:0000130000130013
#04312:0000001300000000
#04412:001300001300001300000000
#04418:0013001300130000
#0441b:00131313
#04415:000000000013000000000013000000000013000000000000
#04410:41
#04515:1313001300000023
#0451b:000013000000000013000000000000130000000000000000
#04518:000000000013000000000013000000000000130000000000
#04512:0000130013130000
#00612:00130000
#00615:0000001300000013
#0061b:1300000000130000
#00618:00001313
#03915:130000130000000000001300
#03918:0013001300001300
#05018:130000000000000013000000000000000013000000000000
#05015:0000001300000000
#0501a:0014
#05012:000000000000001400000000
#00312:00130000
#00318:0000001300001400
#00315:2313
#00314:000000000014
#0031b:000000130000000000000000000000000000000000000013
#00718:0013000000000013
#0071b:0000000000130000
#00715:0000003300001300
#00712:00130000
#0081b:00130000
#00818:0000001300000013
#00812:1300000000130000
#00815:00001313
#01412:130000000000003300000000
#01418:001300000000000000000000
#01413:0013000000000000
#01419:000000000013000000000000000000000000000000000000
#01414:00130000
#0141a:001300
#01415:0000001313000000
#0141b:000000000000000000000013000000000000000000000000
#01712:001300000000000000000000
#01719:0013000000000000
#01713:000000000013000000000000000000000000000000000000
#0171a:00130000
#01714:001300
#0171b:000000000000000000130000000033000000000000000000
#01715:000000000000000000000013000000000000000000000000
#01718:0013
#0171f:11
#02512:1313
#02518:000013000000000000130000000013000000000000130000
#02515:000000130000000013000000000000130000000013000000
#0251b:00130013
#03715:000013000000000013000000000000130000000000130000
#03712:000000000013000000000013000000000000000000000000
#03718:13131313
#0371b:0013001300000000
#03812:2313
#03818:0000000013000013
#03815:00130000
#0381b:23130000
#03810:41
#04612:23130000
#04618:0000001300001400
#04615:0013
#04614:000000000014
#0461b:230000130000000000000000000000000000000000000013
#0481b:23130000
#04815:0000001300000000
#04818:000000130014
#04814:00000014
#04812:230000130000000000000000000000000000000000000013
#05118:130000000000000013000000000000000013000000000000
#05115:0000001300000000
#0511a:0014
#05112:000000000000001400000000
#00215:0033330000000000
#00418:0033330000000000
#04718:0033330000000000
#04915:0033330000000000
#00158:0053
#00152:000000000000000000000000000000000000000000000053
#0055b:00630000
#01155:00000063
#0115b:00630000
#01258:63
#01255:0053
#01252:63
#0125b:0053
#02258:53
#02252:000000000000000000000053000000000000000000000000
#02358:63530000
#0235b:0053005300000000
#02455:0013000000000000
#02458:00130000
#02758:0000000016000053
#0285b:0000005300000000
#02955:53
#02952:000000000013000000000000000000000000000000000000
#02958:00000053
#0305b:1353
#03058:00530000
#03055:0053
#03052:00530000
#0315b:000000000000000000000053000000000000000000000000
#03255:63
#03252:0000000000530000
#03355:53
#0335a:00001414
#03352:0000000000140014
#03458:0000000000630000
#0355b:0000005300000000
#03555:00000013
#0385b:13630000
#03852:1363
#03855:00630000
#03858:0063
#03955:000000000053
#03958:0000006300000000
#04052:13
#04155:13
#0415b:00130013
#04152:0013
#04252:13
#04355:1313
#04358:0000130000000063
#0435b:00000063
#00355:0063
#0035b:000000000000000000000000000000000000000000000063
#00752:00530000
#01358:0053
#01455:0063
#0155b:0063
#01758:0063
#01955:53
#01958:0063
#02058:53
#02055:0063
#0445b:00000013
#04655:0063
#0465b:000000000000000000000000000000000000000000000063
#04858:0053
#04852:000000000000000000000000000000000000000000000053
#0105b:0053
#01855:0053
#001380:0013
#0013b0:0000000000230000
#001320:000000000000000000000000000000000000000000000013
#002350:0033332300000000
#002380:0000000013230000
#002320:0000000000001323
#003350:0013
#003320:0000000000230000
#0033b0:000000000000000000000000000000000000000000000013
#004380:0033332300000000
#004350:0000000013230000
#0043b0:0000000000001323
#0053b0:00130000
#005380:0000003323000000
#007320:00130000
#007350:0000003323000000
#009350:0000000000001323
#0103b0:000000000000133300000000
#010380:000000000000000000000000000000000023000000000000
#0113b0:00130000
#011380:000000000000000000330023000000000000000000000000
#011350:00000013
#011320:0000000000000023
#012380:13
#0123b0:00230000
#012321:13
#012351:00230000
#012351:0013
#012321:00000023
#0123b0:0013
#012380:00000023
#013380:0013
#0133b0:000000000000000000000000000033000023000000000000
#014350:0013
#014320:000000000000000000000000000033000023000000000000
#0153b0:0013
#015380:000000000000000000000000000033000023000000000000
#017380:0013
#0173b0:000000000000000000000000000033000023000000000000
#018350:0013
#018320:000000000000000000000000000033000023000000000000
#019350:13
#019320:000033330023000000000000000000000000000000000000
#019380:0013
#0193b0:000000000000000000000000000033330023000000000000
#020380:13
#0203b0:0023000000000000
#020350:0013
#020320:0000000000230000
#021380:120032320032000032000032220000000000000000000000
#022380:13
#0223b0:0023000000000000
#022320:000000000000000000000013000000000000000000000000
#022350:000000000000000000000000000033230000000000000000
#023380:1300330000230000
#0233b0:0033003300000000
#027380:0000000000000013
#0283b0:0033003300000000
#028380:0000000000230000
#029350:13
#029320:000000000023000000000000000000000000000000000000
#029380:00000013
#0293b0:0000000000000033
#0303b0:23
#030380:00130023
#0303b0:0033
#030321:00130023
#030351:0033
#0313b1:000000000000000000000013000000000000000000000000
#031381:00000023
#032351:13
#032321:0023000000000000
#032321:0000000000130000
#032351:00000023
#033351:13
#033321:0023000000000000
#034381:0000000000130000
#0343b1:00000023
#0353b1:0000001300000000
#035381:0000000000230000
#038351:00130023
#038321:0033
#0383b0:00130023
#038380:0033
#039380:0000001300000000
#0393b0:0000000000230000
#039350:000000000013
#040320:23
#0433b0:00000013
#043380:0000000000000033
#0443b0:23
#046350:0013
#046320:0000000000230000
#0463b0:000000000000000000000000000000000000000000000013
#047380:0033332300000000
#047350:0000000013230000
#0473b0:0000000000001323
#048380:0013
#0483b0:0000000000230000
#048320:000000000000000000000000000000000000000000000013
#049350:0033332300000000
#049380:0000000013230000
#049320:0000000000001323
#050350:000013000023000000000000000000000000000000000000
#050350:0000000000001323
#051350:000013000023000000000000000000000000000000000000
#051350:0000000000001323
