This file was generated by Ched 2.7.0.0.
#TITLE ""
#ARTIST ""
#DESIGNER ""
#DIFFICULTY 0
#PLAYLEVEL
#SONGID ""
#WAVE ""
#WAVEOFFSET 0
#JACKET ""
#REQUEST "ticks_per_beat 480"
#00002: 4
#BPM01: 115
#00008: 01
#TIL00: ""
#HISPEED 00
#MEASUREHS 00
#0001c:120000000012000012000000000000000000000000000000
#00018:001200000000120000000000
#0001b:0000000000131300
#00012:120000000012000012000000000000130000130000000000
#00016:000000120000000000000012000000000000000000000000
#00118:230000000000130013000000130000000000130000000013
#00115:230000000013000000130013000013130000000013000000
#0011b:001300000000000000001300
#00112:0013000000000000
#00216:0013000000000000
#00214:00130000
#00212:1300001300000000
#0021b:001300000000000000000000
#00219:000000000013000000000000000000000000000000000000
#00217:001300
#00215:000000000000000000000013000000000000000013000000
#00218:000000000000001300000000
#00518:000000130000130000000013000000000000130000130013
#0051b:2300000000130000
#00512:00130013
#00515:2313
#00510:0041000000000000
#00618:000000000000000000000000000000000013130000000000
#0061b:000000000000130000130013000000000000000000000000
#00612:0000130000001313
#00615:2313
#0091b:130000130000000000000000000013000000000000000000
#00918:0000130000000013
#00914:00000000000013130000000000000000
#00915:000000130000000000000000000000000016000000000000
#00912:000000130000001300000000
#00919:00000000000013130000000000000000
#0101b:130013000000000000000000000013000000000000130000
#01015:000000160000160013160000160000000000000013130000
#01018:000000000013000000000000000000000013000000000000
#01012:130000000000000000000013000013000000000000000000
#0111b:000000130000000000000013000000000013000000000000
#01115:000000130000000000160013000016130000000000000000
#01112:00130013
#01118:0000130000000013
#01315:160013000000160000000000160000000000130000130000
#01318:000000160013000000000013000000000013000000000013
#0131b:000000001300001300001300
#01312:130000000000000000160000000013000000000000000000
#01310:41
#0141b:130000000000001300001300
#01412:000000160000000013000000000013000000000013000013
#01415:160000000013160000000013160000000013000000000000
#01418:000013000000000000160000000000000000130000000000
#01515:160000160013160000160000160013000000000000000000
#0151b:000013000000000000000000000000000013000000000000
#01518:000000000000000013000000000013000000000000130000
#01512:000000000000000000000013000000000000000000000000
#01615:130000000000000000130013000000000013000019000000
#01612:000000130013000000000000130000130000000000130019
#0161b:000000130013000000130000000000130000000000000000
#01618:000000001300130000160000
#01718:000000160000000000160000000013000000000013000000
#01712:000000000000160000000000160000000013000000130000
#01715:000016000016000016000016000013000000000000000016
#0171b:13
#0171f:11
#0181b:130000000000000000000000130000000013000000000000
#01815:000016000016000016130016000013000000000000130013
#01818:000000130000000000000000000013000000000013000000
#01812:00130000
#01918:130013000000000000000000000000000013000000000000
#0191b:000000000013000000130000000000130000000000000000
#01915:000000130000000016000016000016000000000019130000
#01912:000000000013000000000000130000000013000000000019
#02012:130000000013000019000000000000000000000000000000
#02018:000000130000000000130000000000000013000000000000
#0201b:000000000013000000000000130000000000000000000000
#02015:000000000000000000000019000000130000130000000000
#02016:0000000000000014
#02118:001200000000000000000000
#0211b:00000013
#02115:000000000000000000000000000000000000000016130016
#02116:0012000000000000
#02117:120000000012000012000012120000000000000000000000
#02114:0000000000120000
#02112:000000001200000000130000
#0211c:000000000012000000000000000000000000000000000000
#0211a:0000000000120000
#02218:000000130000000013000013000013000000000000000013
#02212:230000000000130000000013000000000000130000130000
#02215:000000130000000013000000000000160016000000000000
#0221b:2300130000001313
#0221f:21
#02315:130000000013000013130000000000160000000000000000
#02312:00000013
#0231b:000000130013
#02318:001300130000000000000000
#02316:000000000000000000141400
#02310:41
#02418:130000000000130000130013000000000016000013000000
#0241b:0013000000000000
#02412:130000000016000000000000000000130000000013000000
#02415:001600000000001600130000
#02612:1300001300000000
#02618:000013000000000000130000000000000000000000130000
#02615:000000160013160000000013000013130000000013130000
#0261b:130000000000000000000013000000000013000000000000
#02717:0000000000000013
#02718:260013260000
#02716:0000000000130000
#02715:001316000016000000000000
#0271b:001300230000000000000000
#02712:230000261300260000000000
#0281b:0013000000001300
#02812:1300131300130013
#02818:000000000000000000000000000000000000000000130013
#02817:0000001300000000
#02815:0013000013001300
#0291b:000000000013000000000000000000130000000000000000
#02915:000000000000000013190019130000000000000000130000
#02918:001300000000000000130000
#02912:19191c0000000000
#03012:1300130000131300
#03017:00130000
#0301b:0000001313000013
#03016:0000000000000014
#03116:1414140000000000
#0311b:000000130000000000130013000000000000000000130000
#03115:000000000000000000000000000000000000000000000013
#03112:1300130000000013
#03117:000000000000000000130013000000000000000000000000
#03110:41
#03212:0016160013001613
#0321b:0000130000131300
#03215:000000000000000000130000000016000000000016000000
#03218:131600001300160000000000
#03315:000000130013000000130013000000190000000000190000
#03318:161300131300000000000000
#03312:13001919
#03412:130013000000000000130013000000000000130000000000
#03415:000000130000000000000000000013000016000000130016
#03418:000000000013000000000000000000160000000016000000
#0341b:130000000000130000130013000000000000000000000000
#03512:13001313
#03515:0013000000000000
#03518:000000000000130000000000000000000000000000000013
#0351b:0000001300130000
#03516:0000001300130000
#03517:0013
#03615:160013160000000013000000190013000000000000000000
#03612:0000160000190000
#03618:000000000013000000160013000000000016000016000000
#03718:131600000000000000000000
#03712:000000000019000000000016000000000000130000000000
#03715:000000000000000019000000000000190000000000000000
#0371b:0000000000000013
#03716:0000000000001414
#04018:0013000000000000
#04015:000000130000160000160016000013160000160016000013
#04012:00130000
#04115:161600161600131600131600
#04112:0013001300130013
#04118:00001313
#0411b:0013001300130013
#0421b:000000130000000000000000000000000000000013000000
#04215:160000000000160000000016000000000000130000000019
#04218:0000000000161300
#04212:000000000000000000130000000000000000000013000000
#04315:1316131613160000
#04318:00131300
#0431b:0000001300000013
#04317:00000013
#04312:0013000000131300
#04316:0000000000000013
#04412:00001c00001c00001c00001c13001c00001c00001c000000
#0441b:0013000000000000
#04418:00130013
#04415:0000001300130000
#04410:41
#04512:1c00001c00001c00001c00131c0000000000000000230000
#0451b:000013000000000000000000000000000000000000230000
#04518:000000000013000000000000000013000000130000000000
#04515:000000000000000013000000000000130013000000000000
#03912:000000000000000000130000000000000000130013000000
#03916:130000000000000000130000000000000000130013000000
#0391b:13130000
#03918:0013000000000000
#00715:0013130000130000
#00712:23000000000000000000000013001313
#00718:00130013
#0071b:2313
#00812:000000000000000000000000000000000000000013130000
#00815:000000000000000000000000000000000000130000130000000000001300000000000000000000000000000000000000
#00818:00130013
#0081b:2313
#01215:000000130000000013000000000016130000000016000000
#01218:000013000000000000130000000000000000000000130000
#01212:23232323
#0121b:23232323
#00315:230000000000130013000000130000000000130000000013
#00318:230000000013000000130013000013130000000013000000
#00312:001300000000000000001300
#0031b:0013000000000000
#00417:0013000000000000
#00419:00130000
#0041b:1300001300000000
#00412:001300000000000000000000
#00414:000000000013000000000000000000000000000000000000
#00416:001300
#00418:000000000000000000000013000000000000000013000000
#00415:000000000000001300000000
#02518:000013000013000000000000000000000000000000000000
#0251b:000000000000000013000000000000000000000000130000
#02512:000000000000001300000000
#02515:000000000000000000000000000000000013000013000000
#03816:0013
#03817:00130000
#03812:23000013
#0381b:2300000000130013
#03818:00000013
#03810:41
#04618:000013000000160000000000130000000000130000000013
#04615:000000000013000016130016000013130000000013000000
#0461b:230000000013
#04612:2313000000000000
#0471b:001300000000000000000000
#04719:000000000013000000000000000000000000000000000000
#04717:001300
#04715:000000000000000000000013000016000000000016000000
#04812:230000160000000000001300
#04818:000000000013000000130000000013130000000013000000
#04815:000013000000000016000016130000000000130000000013
#0481b:2313000000000000
#04912:001300000000000000000000
#04914:000000000013000000000000000000000000000000000000
#04916:001300
#04918:000000000000000000000013000000000000000000000000
#04915:000000000000001600001600
#05016:12
#05012:0000000000000012
#05118:12
#00052:00000053
#0005b:00000053
#00158:1353
#00155:1300000000530000
#00558:000000000000530000000000000000000000000000000053
#00755:00630000
#00752:00000000000000000000000000000063
#01055:0016161600000000
#01052:000000000000005300000000
#01058:000000000000000000000000000000000053000000000000
#01152:00000053
#01358:0016000000000000
#01355:16161600
#01352:0000001600000000
#01555:160000160000160000160000160053000000000000000000
#01758:000000160000000000160000000063000000000000000000
#01752:00161600
#0185b:1313
#01858:0013000000000000
#01852:00130000
#01855:000000000000000000130000000053000000000000000000
#02052:53
#0205b:0063
#02355:5300005300000000
#02358:00630000
#0245b:0013000000000000
#02458:00130000
#02452:0000000000130000
#02455:00000013
#02655:0016160000630063
#0265b:000000000000000000000053000000000053000000000000
#02758:1616
#02752:00161600
#02757:0000000000000053
#0295b:000000000013000000000000000000000000000000000000
#02958:00000053
#02955:0053
#0305b:1353
#03052:13530000
#03056:0000000000000014
#0315b:000000000000000000000053000000000000000000000000
#03157:000000000000000000000053000000000000000000000000
#03156:1414140000000000
#0355b:0000005300530000
#03557:0053
#03552:00000013
#0385b:13
#03852:13000063
#03856:0063
#03956:630000000000000000530000000000000000000053000000
#03952:000000000000000000530000000000000000000053000000
#04055:000000000000160000000016000000160000000016000000
#04057:13
#0405b:13
#04155:16160013
#04158:0013
#04357:00000053
#0435b:0000000000000053
#04356:0000000000000053
#04352:00000053
#04355:3333
#04358:00430000
#0445b:0013000000000000
#04458:00130013
#04455:0000001300130000
#04452:1313
#04457:13
#04552:1c1c1c1c1c000000
#00252:0000000000130000
#0025b:0000000000000013
#00355:1363
#00358:1300000000630000
#0045b:0000000000130000
#00452:0000000000000013
#0065b:000000000000000000000053000000000000000000000000
#00658:00000053
#00855:000000000000005300000000
#00852:0000000000000053
#01455:16161600
#01452:0016000000000000
#01458:0000001600000000
#02252:000000000000000000000053000000000000000000000000
#0285b:0053000000000000
#02857:0000005300000000
#03352:00004949
#03355:0000000000390039
#04255:360000000000460000000036000000000000000000000000
#04258:0000000000460000
#0425b:000000000043
#04252:000000000033
#04658:0053
#04655:0000000000530000
#0465b:13
#04652:13
#04752:0000000000130000
#0475b:0000000000000013
#04855:0063
#04858:0000000000630000
#04852:13
#0485b:13
#0495b:0000000000130000
#04952:0000000000000013
#000320:00000013
#001350:23
#0003b1:00000013
#001381:23
#001381:0013
#0013b1:0000000000230000
#001350:0000000000130000
#001320:00000023
#002320:0000000013230000
#0023b0:0000000000001323
#003350:0013
#003320:0000000000230000
#003381:0000000000130000
#0033b1:00000023
#0043b1:0000000013230000
#004321:0000000000001323
#005381:00130000
#0053b1:0000002300000000
#005381:000000000000000000000000000000000000000000000013
#0063b1:002300000000000000000000
#0063b1:000000000000000000000013000000000000000000000000
#006381:000000000000002300000000
#006381:00000013
#0063b1:0000000000000023
#007351:00130000
#007321:0000002300000000
#007351:000000000000000000000013230000000000000000000000
#007321:00000000000000000000000000000013
#008351:00230000000000000000000000000000
#008321:000000000013230000000000000000000000000000000000
#008351:000000000000001300000000
#008321:000000000000000000000000000000000023000000000000
#008321:0000000000000013
#009351:23
#009351:0000000000001323
#010321:000000000000001300000000
#010351:000000000000000000000000000000000023000000000000
#010380:000000000000000000000000000000000013000000000000
#0103b0:000000000023
#011320:00000013
#011350:0000000000000023
#015350:000000000000001300000000
#015320:000000000000000000000000000000000023000000000000
#015350:000000000000000000000000000000000000000013230000
#015380:000000000000000000000000000000000000000000000013
#016380:23
#017380:000000000000001300000000
#0173b0:000000000000000000000000000000000023000000000000
#018350:000000000000001300000000
#018320:000000000000000000000000000000000023000000000000
#020320:13
#020350:0023000000000000
#0203b0:0013
#020380:0000000000230000
#0203b0:000000000000000000000000000000000000000000130023
#022320:000000000000000000000013000000000000000000000000
#022350:000000000000002300000000
#023350:13
#023320:0023000000000000
#023380:00130000
#0233b0:0000002300000000
#023351:0000001300000000
#023321:0023
#024351:000000000000000000130023000000000000000000000000
#025321:132300000000000000000000
#025321:000000160026000000000000000000000000000000000000
#025321:000000192900000000000000
#025321:0000000000000000001c002c000000000000000000000000
#025351:000000000000192900000000
#025381:000000000000000000000000000000160026000000000000
#0253b1:000000000000000000132300
#0263b1:000000000000000000000013000000000000000000000000
#026381:000000000000002300000000
#026351:0000000000130000
#026321:000000000000000000000000000000000023000000000000
#0263b0:000000000000000000000000000000000013000000000000
#026380:000000000023
#026350:0000000000000013
#026320:000000000000000000000000000000000000000000000023
#0273b0:0000000000130000
#027390:00000023
#027341:00000013
#027321:0000000000000023
#027370:0000000000000013
#0283b0:0033000000230000
#028370:0000003300000000
#029350:0013
#029320:00000023
#029381:00000013
#0303b1:23
#030321:00130000
#030371:0023
#0303b0:0013
#030360:00000023
#0313b0:000000000000000000000013000000000000000000000000
#031360:00000023
#031371:000000000000000000000013000000000000000000000000
#031321:00000023
#0353b1:0000001300330000
#035371:00003323
#036321:000000000000000000162600
#037351:132300000000000000000000
#0373b1:000000130023000000000000000000000000000000000000
#037321:000000132300000000000000
#037381:000000000000000000130023000000000000000000000000
#037321:0000000013230000
#038321:00130000
#038341:0000002300000000
#038390:0000001300000000
#0383b0:0023
#038361:0013
#038321:00000033
#039361:33
#039321:00230000
#039321:0000001300000000
#039371:0000000000230000
#039360:0000001300000000
#0393b0:0000000000230000
#039320:000000000013
#040370:23
#039361:000000000013
#0403b1:23
#0403b1:000000000000000000130023000000000000000000000000
#040321:000000000000000000132300
#042321:0013230000000000
#0423b1:000000000000000000130023000000000000000000000000
#042321:000000000000000000000000000016260000000000000000
#043371:00000013
#0433b1:0000000000000033
#044371:23
#043320:00000013
#043360:0000000000000033
#044320:23
#046380:0013
#0463b0:0000000000230000
#046351:0000000000130000
#046321:00000023
#047321:132300000000000000000000
#047361:000000130023000000000000000000000000000000000000
#047341:000000132300000000000000
#047321:000000000000000000130023000000000000000000000000
#047321:0000000013230000
#0473b1:0000000000001323
#048351:0013
#048321:0000000000230000
#048380:0000000000130000
#0483b0:00000023
#0493b0:132300000000000000000000
#049370:000000130023000000000000000000000000000000000000
#049390:000000132300000000000000
#0493b0:000000000000000000130023000000000000000000000000
#0493b0:0000000013230000
#049320:0000000000001323
#050380:122200000000000000000000
#050361:000000000000000000000000000000001200000000000000000000520000000000520000000000002200000000000000000000000000000000000000000000000000000000000000000000000000000000000000000000000000000000000000000000000000000000000000000000000000000000000000000000000000000000000000000000000000000000000000000000000000000000000000000000000000000000000000000000000000000000000000000000000000000000000000
#050351:0000000000525200000000000000000000000000000000000000000000000000
#0503c0:000000000012000022000000000000000000000000000000
#050361:000000000000000012220000000000000000000000000000
#0503a0:0000001222000000
#050341:000000000000122200000000
#050380:000000000000000000000000000012000022000000000000
#050321:000000000000000000000000000000000012220000000000
#050380:0000000000000000000000000000000000000000000000001252525222000000
#050390:00000000000000000000000000000000000000000000000000000000000000000000000000000000000000000000000000520052005200520000000000000000
#051360:122200000000000000000000
#051381:000000000000000000000000000000001200000000000000000000520000000000520000000000002200000000000000000000000000000000000000000000000000000000000000000000000000000000000000000000000000000000000000000000000000000000000000000000000000000000000000000000000000000000000000000000000000000000000000000000000000000000000000000000000000000000000000000000000000000000000000000000000000000000000000
#051391:0000000000525200000000000000000000000000000000000000000000000000
#051320:000000000012000022000000000000000000000000000000
#051381:000000000000000012220000000000000000000000000000
#051340:0000001222000000
#0513a1:000000000000122200000000
#051360:000000000000000000000000000012000022000000000000
#0513c1:000000000000000000000000000000000012220000000000
#051360:0000000000000000000000000000000000000000000000001252525222000000
#051350:00000000000000000000000000000000000000000000000000000000000000000000000000000000000000000000000000520052005200520000000000000000
