This file was generated by Ched 2.7.0.0.
#TITLE ""
#ARTIST ""
#DESIGNER ""
#DIFFICULTY 0
#PLAYLEVEL
#SONGID ""
#WAVE ""
#WAVEOFFSET 0
#JACKET ""
#REQUEST "ticks_per_beat 480"
#00002: 4
#BPM01: 115
#00008: 01
#TIL00: ""
#HISPEED 00
#MEASUREHS 00
#0011a:1414
#00114:00140014
#00312:1414
#00318:00140014
#0051a:00140014
#00514:0014
#00510:0041000000000000
#00612:00140014
#00618:0014
#0071a:00140014
#00714:0014
#00812:00140014
#00818:0014
#0091a:00140000
#00914:0014
#00918:00000014
#0111a:14
#01112:00140000
#01118:0014
#01114:00000014
#01312:14140000
#01318:00001414
#01310:41
#01414:14140000
#0141a:00001414
#01512:14
#01514:00140000
#01518:0014
#0151a:00000014
#01612:14
#01618:00140000
#0171a:14140000
#01714:00001414
#0171f:11
#01818:14140000
#01812:00001414
#0191a:14
#02012:14
#02214:0000140000140000
#02218:00001414
#0221a:24
#0221f:21
#02312:14
#02318:0000140000140000
#02314:00001414
#02310:41
#0241a:14
#02418:000000340000340000340034000000340000000000000000
#02512:1434343434340000
#0261a:14
#02612:00140000
#02618:00001414
#02614:0000000000140014
#02812:1414
#02818:00140014
#02914:1414
#0291a:00140014
#03112:14141400
#03118:0014001400000000
#03110:41
#0331a:14140000
#03314:0014001400000000
#03318:00001414
#03312:0000000000140014
#03418:14
#03414:00140000
#0341a:0014
#03412:00000014
#0361a:14
#03618:0034343434340000
#03712:14
#03714:0034343434003400
#0381a:00140000
#03812:0014
#03818:00000014
#03815:24
#03810:41
#03914:14
#0391a:00140000
#03912:0014
#03918:00000014
#04012:14140000
#04018:00001414
#04114:24140000
#0411a:00002414
#04214:14
#04212:00140000
#04218:0014
#0421a:00000014
#04312:00140000
#0431a:00000014
#04314:24
#04318:0024
#04412:14
#04414:0034343434340000
#04410:41
#0451a:14
#04518:0034343434003400
#04612:00140014
#04618:0014
#04617:24
#04814:1414
#0481a:00140014
#02113:24
#02119:24
#02718:2626
#02712:00260000
#0121a:00343400
#04718:00343400
#04914:00343400
#01258:00000014
#0195a:54
#02052:54
#0245a:54
#02552:54
#0365a:54
#03752:64
#03855:14
#04452:64
#0455a:54
#04657:14
#0023a0:14343424
#004320:14343424
#010320:14
#010340:00000024
#0123a0:14343400
#012380:00000024
#016320:00001424
#0193a0:14
#019380:0024
#020320:14
#020340:0024
#0243a0:14
#024380:000000340000340000340034000000340000240000000000
#025320:1434343434340000
#025340:00000024
#030320:14
#030340:00240000
#0303a0:0014
#030380:00000024
#0323a0:14
#032380:00240000
#032320:0014
#032340:00000024
#035380:14240000
#035340:00001424
#0363a0:14
#036380:0034343434342400
#037320:14
#037340:0034343434003400
#038350:24
#044320:14
#044340:0034343434342400
#0453a0:14
#045380:0034343434003400
#046370:24
#047380:14343400
#0473a0:00000024
#049340:14343400
#049320:00000024
#050380:14000024
#051340:14000024
