This file was generated by Ched 2.6.4.0.
#TITLE ""
#ARTIST ""
#DESIGNER ""
#DIFFICULTY 0
#PLAYLEVEL
#SONGID ""
#WAVE ""
#WAVEOFFSET 0
#JACKET ""
#REQUEST "ticks_per_beat 480"
#00002: 4
#BPM01: 166
#00008: 01
#TIL00: ""
#HISPEED 00
#MEASUREHS 00
#0021a:14
#0031a:14
#00412:14
#00512:14
#00618:14
#00718:14
#00814:14
#00914:14
#0101a:14
#01010:41
#01114:14
#0121a:14
#01314:14
#01418:14
#01512:14
#01618:14
#01712:14
#01818:14
#01912:14
#0201a:14
#02114:14
#02218:14
#02312:14
#0241a:14
#02514:14
#02613:14
#02619:14
#03712:1616
#04112:1616
#03918:1616
#04318:1626
#04512:1626
#04510:41
#0471a:14
#04814:14
#0491a:14
#05012:14
#05118:14
#05212:14
#05318:14
#05412:14
#05518:14
#05614:14
#0571a:14
#05812:14
#05810:41
#05918:14
#06014:14
#0611a:14
#07112:16
#07118:0016
#07110:41
#07512:16
#07518:0016
#07318:16
#07312:0016
#07718:16
#07712:0026
#07912:16
#07918:0026
#0811a:14
#08212:14
#08318:14
#08312:0026
#08512:14
#0861a:14
#08714:14
#0621f:11
#03612:26
#03618:0026
#04012:26
#04018:0026
#07012:26
#07018:0026
#0701f:21
#07412:26
#07418:0026
#08012:26
#08010:41
#07818:26
#08418:26
#04418:26
#04612:26
#02810:41
#027380:14342400
#028320:14
#029320:24
#0303a0:14
#0313a0:24
#032340:14
#033340:24
#034380:14
#035380:24
#038320:1626
#042320:1626
#062340:14
#063340:24
#064380:14
#065380:24
#066320:14
#067320:24
#0683a0:14
#0693a0:24
#072320:1626
#076320:1626
#0883a0:1400003400340034
#0893a0:0000003400340034
#0903a0:0000003400340034
#0913a0:0000003400340024
