This file was generated by Ched 2.6.4.0.
#TITLE ""
#ARTIST ""
#DESIGNER ""
#DIFFICULTY 0
#PLAYLEVEL
#SONGID ""
#WAVE ""
#WAVEOFFSET 0
#JACKET ""
#REQUEST "ticks_per_beat 480"
#00002: 4
#BPM01: 166
#00008: 01
#TIL00: ""
#HISPEED 00
#MEASUREHS 00
#0001a:12
#00018:00121212
#00016:0000001200120012
#00014:12
#00118:13141600
#00115:0013000000000000
#00114:0000001400000000
#0011a:0000000000120000
#0101b:13000013
#01012:0000001300000013
#01017:0000000013000013
#01016:23
#01010:41
#0111b:0013000013001300
#01115:00130013
#01118:0000001300000000
#01112:0013
#01218:00131300
#01215:1300001300000000
#01212:00000013
#0121b:0000000000130013
#01318:0013000000000000
#01315:1300001300000000
#0131b:00001313
#01312:00130000
#01416:0000000024000013
#0141b:0000001300000013
#01412:13000013
#01417:23
#01512:0013000013001300
#01518:00130013
#01515:0000001300000000
#0151b:0013
#01615:00131300
#01618:1300001300000000
#0161b:00000013
#01612:0000000000130013
#01715:0013000000000000
#01718:1300001300000000
#01712:0013
#01716:00000014
#0171b:00130000
#03712:1300001300000000
#03718:0013
#03715:0000000000130013
#0371b:13000013
#03812:1300000000000014
#03816:0000000000140014
#0381b:13
#03814:0000001400000000
#0381a:0000000000140000
#03915:0013000000130000
#0391b:00131313
#03918:0000001300000000
#03912:00131313
#0411b:1300001300000000
#04115:0013
#04118:0000000000130013
#04112:13000013
#0421b:13
#04212:1300000000140000
#04216:0000000000140014
#04218:0000001400000000
#0421a:0000000000000014
#04416:00121212
#04418:0000001200120012
#04415:23
#02618:00121212
#02616:0000001200120012
#02614:12
#0261a:12
#01815:00130013
#01818:0000000013000013
#0181b:23
#01812:23
#01915:13
#01912:0013000013000000
#01918:00130000
#0191b:0000001300000013
#01919:00000000000000000000001300000000
#01916:0000000000000013
#01917:0013
#01914:00000000000000000000001300000000
#02118:13
#0211b:0013000013000000
#02115:00130000
#02112:0000001300000013
#02114:00000000000000000000001300000000
#02117:0000000000000013
#02116:0013
#02119:00000000000000000000001300000000
#02018:00130013
#02015:0000000013000013
#02212:00130013
#0221b:0013
#02218:0000000000000013
#02312:1300000013000013
#02315:0013000000000000
#02318:00130000
#0231b:00000000000013000000001300000000
#02317:0000000013000013
#02316:00000000000000000000001300000000
#0241b:00130013
#02412:0013
#02415:0000000000000013
#02512:13
#02518:13
#0251b:0013
#02515:0013
#0541b:1300001300001300
#05415:0013000000130000
#05418:00131300
#05412:1300001300001300
#0551b:1300001300000013
#05515:00130000000013000000000000000000
#05518:00000013000000000000130000000000
#05512:00130000
#05612:1300001300001300
#05618:0013000000130000
#05615:00131300
#0561b:1300001300001300
#05712:1300001300001300
#05718:00130000000013000000000000000000
#05715:00000013000000000000000000000000
#0571b:00130000
#05716:0013
#05714:0000000000130000
#05815:13130000
#0581b:13
#05818:0013001300000000
#05812:0000001300000000
#05816:0024
#05810:41
#05918:1300001300000000
#05912:00130000000013000000000000001300
#0591b:00000013000000000000130000000000
#05915:00130000
#06018:1313130000001300
#06012:0000001300001300
#0601b:0000001300000000
#06015:0000000013130000
#06115:1300001300000000
#0611b:00130000000013000000000000001300
#06112:00000013000000000000130000000000
#06118:00130000
#0711b:1300001300001300
#07118:0013
#07112:1300000000130000
#07115:0000000000000013
#07110:41
#07212:1300000000000014
#07216:0000001400000014
#07214:0000000000140000
#07218:1300000000140000
#0731b:0013000013001300
#07318:0000130000130000
#07315:0000001300001300
#07312:00131300
#0761b:13
#07615:13
#07616:0000001400000014
#07618:0000000000140000
#0761a:0000000000000014
#07614:0000000000140000
#07814:00120012
#0781a:0000001200000012
#07816:0012
#07818:0000000000120000
#08016:00141414
#08012:0000001300000000
#0801b:0000000013130013
#08010:41
#08116:14141400
#08112:1313000013000000
#0811b:0000131300000000
#0841a:00140000
#08416:0000001400001400
#0841b:0013
#08419:0000000000130000
#08414:0000000000000013
#08412:00131400
#0851a:1414
#08516:0014001400000000
#08512:13141414
#0851b:00130000
#08517:0000000000140000
#08212:1300000013130013
#0821b:1300001300000000
#08216:00141414
#0861b:13130000
#08612:13141300
#08616:0000001400001400
#08614:0000000000130000
#08619:0000000000000013
#0861a:0014
#08712:14131400
#0871b:1313
#08716:0014001400140014
#0871a:00140014
#08316:14140000
#0831b:1313000000000000
#08312:0000131324000000
#0831a:0024
#03516:13
#0351b:13
#03517:0013
#03512:0013
#07512:1300001300001300
#07515:0013
#0751b:1300000000130000
#07518:0000000000000013
#08815:0013000000000000
#08814:0000001300000000
#08813:0000000000130000
#08812:1400000000000013
#0881b:00330000
#0881a:0034
#08819:00000035
#08918:0013000000000000
#08919:0000001300000000
#0891a:0000000000130000
#0891b:0000000000000013
#08912:00343536
#09016:0013000000000000
#09014:0000000000130000
#09012:0000001300000013
#0901a:00340000
#09019:0035
#09018:00000036
#09117:0013000000000000
#0911b:0000001300000013
#09119:0000000000130000
#09112:00353637
#00215:0000130013000013
#00218:0000001300001300
#0021b:2313
#00212:2300000000130000
#00318:13131300
#0031b:0013000000000000
#00315:0000001300001300
#00312:13131300
#00418:0000130000130013
#00415:0000001300001300
#00412:1313
#0041b:1313
#00512:13131300
#00515:0013000000001300
#00518:0000001300000000
#0051b:13131300
#00812:1313
#00815:0000130000130013
#00818:0000001300001300
#0081b:1313
#0091b:13131300
#00918:0013000000001300
#00915:0000001300000000
#00912:13131300
#02817:00000000001300002300000000000000
#02812:0000231323000000
#02816:2300000000000023
#02814:00000000000000000000002300000000
#02819:00000000000000000000002300000000
#0281b:0000000000000023
#02810:41
#03212:00000000001300000000000000002300
#03217:0000231300000023
#0321b:2323
#03219:00000000000000000000002300000000
#03216:0023
#03214:00000000000000000000002300000000
#02914:00000000000013000000002300000000
#02919:00001300000000000000002300000000
#0291b:2323
#02917:0000230000000023
#02916:2323
#02912:0000230000000023
#03314:00000000000013000000002300000000
#03319:00001300000000000000002300000000
#03317:2323
#0331b:0000230000000023
#03312:2323
#03316:0000230000000023
#03016:00000000001300002300000000000000
#0301b:0000231323000000
#03017:2300000000000023
#03019:00000000000000000000002300000000
#03014:00000000000000000000002300000000
#03012:0000000000000023
#03416:0000231300000023
#0341b:00000000001300000000000000002300
#03412:2323
#03417:0023
#03419:00000000000000000000002300000000
#03414:00000000000000000000002300000000
#03119:0000001300000000
#03114:0013000000000000
#03112:23
#03116:00230000
#03117:23
#0311b:00230000
#03617:00130000230000000000000000000000
#03612:2313230000000000
#03616:00000000000000000013000023000000
#0361b:0000000023132300
#0401b:00000000000000000013000023000000
#04016:0000000023132300
#04012:00130000230000000000000000000000
#04017:2313230000000000
#0461b:0000130000130000
#04615:0000001300001300
#04612:00131300
#04618:0000000013000013
#0461a:24
#0471b:13130000
#04718:0013000013000000
#04715:0000001300001300
#04712:13131300
#0481b:1300000000130000
#04812:13131300
#04818:0000130013000013
#04815:0000001300001300
#0521b:13131300
#05212:1300000000130000
#05215:0000130013000013
#05218:0000001300001300
#05318:13131300
#0531b:0013000000000000
#05315:0000001300001300
#05312:13131300
#04915:13131300
#04912:0013000000000000
#04918:0000001300001300
#0491b:13131300
#06917:13
#06912:13
#06916:0013
#0691b:0013
#0621b:13000000001300000000002300000000
#06216:00000000230013000000002300000000
#06217:0013000023000023
#0621f:11
#06212:2300000023000023
#06316:00000000230013000000002300000000
#06317:2313000023000023
#0631b:00000000230000000000002300000000
#06312:2300000023000023
#06416:13000000001300000000002300000000
#0641b:23000000230013000000002300000000
#06412:0013000023000023
#06417:0000000023000023
#06512:0000231300000000
#0651b:2313000000000000
#06517:00230000
#06516:23
#06612:13000000001300000000002300000000
#06617:00000000230013000000002300000000
#06616:0013000023000023
#0661b:2300000023000023
#06717:00000000230013000000002300000000
#06716:2313000023000023
#06712:00000000230000000000002300000000
#0671b:2300000023000023
#06817:13000000001300000000002300000000
#06812:23000000230013000000002300000000
#0681b:0013000023000023
#06816:0000000023000023
#07018:00130000000000000000130000000000
#07015:00001300000000000013000000000000
#07012:23230000
#07017:00230000
#0701b:00002323
#07016:00000023
#0701f:21
#07418:00130000000000002300000000000000
#07412:0013230000000000
#07415:23000000000000000013000000000000
#0741b:0000000000132300
#07417:00230000
#07416:00000023
#07912:1515151524000000
#07919:1515151500000000
#0791a:0024
#04512:1414141400002400
#0451a:1414141424000000
#04510:41
#00618:0000130013000013
#00615:0000001300001300
#00612:2313
#0061b:2300000000130000
#00715:13131300
#00712:0013000000000000
#00718:0000001300001300
#0071b:13131300
#05012:2300130000130000
#05018:0000001300001300
#0501b:23131300
#05015:0000000013000013
#05112:13130000
#05115:0013000013000000
#05118:0000001300001300
#0511b:13131300
#02718:24240000
#02714:2424
#0431a:00230000
#04316:0024000000000000
#04312:0023
#0431b:00000023
#04313:00230000
#0771a:00230000
#07713:00230000
#07716:0024000000000000
#07712:002c
#0105b:63
#01057:0043
#01255:63
#01258:0053
#0125b:0000000000230000
#01658:53
#01655:0063
#01652:0000000000230000
#02555:00136300
#0255b:00136300
#02552:53000013
#02558:53000013
#08152:0053
#08156:00140014
#0855a:00006444
#08557:0000000000240000
#08552:00140000
#02758:1414
#02754:00141400
#01952:0013
#01959:00000000000000000000001300000000
#01956:0000000000000013
#0215b:0013
#02154:00000000000000000000001300000000
#02157:0000000000000013
#02352:0000000013000013
#0235b:00000000000000000000001300000000
#00158:0066
#0015a:0000000000220000
#0115b:00000063
#0135b:00000013
#01352:00530000
#01355:0000002300000000
#01552:00000053
#03556:63000013
#0355b:63000013
#03557:00135300
#03552:00135300
#0385b:63
#0385a:0000000000440000
#03856:0000000000340044
#03854:0000003400000000
#03852:0000000000000034
#03858:0000004400000000
#04252:5300000000340000
#04256:0000000000440034
#04258:0000004400000000
#0425a:0000000000000044
#04254:0000003400000000
#07258:5300000000440000
#07256:0000003400000044
#07254:0000000000340000
#07252:0000000000000034
#0725a:0000004400000000
#07655:63
#07656:0000004400000034
#07658:0000000000440000
#0765a:0000000000000044
#07654:0000000000340000
#07652:0000003400000000
#0175b:00630000
#01758:0000002300000000
#00358:0053
#0035b:00000013
#0055b:0063
#00558:00000013
#00952:0053
#00955:00000013
#00958:00000013
#01452:53
#01456:0034
#03657:00330000
#03652:00330000
#0365b:00000043
#03656:00000043
#04052:00330000
#04057:00330000
#0405b:00000043
#04056:00000043
#04758:0053
#0475b:00130013
#0465b:00130000
#04655:00000013
#05255:00130000
#05258:00000013
#05358:00135300
#0535b:00000013
#04858:00130000
#04855:00000013
#04955:00136300
#04952:00000013
#06957:53000013
#06952:53000013
#06956:00136300
#0695b:00136300
#06257:0023000000000000
#0625b:63
#06452:0023000000000000
#06456:63
#06656:0023000000000000
#06652:53
#0685b:0023000000000000
#06857:53
#07052:00330000
#07057:00330000
#0705b:00000043
#07056:00000043
#07452:00330000
#07457:00330000
#0745b:00000043
#07456:00000043
#08056:00140014
#08052:14
#0805a:14
#08256:00140014
#08356:00140000
#0845a:14140000
#08456:00000014
#08452:14
#08652:00140000
#08656:00000014
#0875a:00140000
#0455a:0064
#04552:00000054
#04352:0053
#0435b:00000063
#00755:0063
#00752:00000013
#05052:00130000
#05058:00000013
#05152:00130013
#05155:0063
#001380:00001626
#0013a0:0000000000520000
#003380:0013
#0033b0:00000023
#0053b0:0013
#005380:00000023
#007350:0013
#007320:00000023
#009320:0013
#009350:00000023
#0103b0:13
#010370:0000002300000000
#010320:0013
#010360:00000023
#0113b0:00000013
#012380:23
#012351:13
#012321:00230000
#012381:00001323
#0123b1:0000000000530000
#013321:00132300
#013351:0000005300000000
#014321:13
#014361:0000002300000000
#0143b1:0013
#014371:00000023
#015321:00000013
#016351:23
#016380:13
#0163b0:00230000
#016350:00001323
#016320:0000000000530000
#0173b0:00132300
#017380:0000005300000000
#018380:0013000000000000
#0183b0:00230000
#018320:0000001300000000
#018350:0023
#018380:0000000000130000
#0183b0:00000023
#020350:0013000000000000
#020320:00230000
#0203b0:0000001300000000
#020380:0023
#020350:0000000000130000
#020320:00000023
#022380:0013000000000000
#0223b0:00230000
#022350:0000001300000000
#022320:0023
#022380:0000000000130000
#0223b0:00000023
#024350:0013000000000000
#024320:00230000
#024380:0000001300000000
#0243b0:0023
#024350:0000000000130000
#024320:00000023
#025380:13
#0253b0:00230000
#025321:13
#025351:00230000
#025351:0013
#025321:00000023
#0253b0:0013
#025380:00000023
#027340:14240000
#027381:00142400
#0283b1:13
#028371:00230000
#030321:13
#030361:00230000
#031381:0000000014240000
#0313a1:00000000000000000000000000000000000000000000000000000000000000000054005400540054000000000000000000000000000000000000000000000000
#031371:0000000000000000000000000000000000343434000000000000000000000000
#031331:0000000000001424
#031351:00000000000000000000000000000000000000000000000000000000000000000000000000000000000000000000000000540054005400540000000000000000
#031321:0000000000000000000000000000000000000000000000000034343400000000
#032361:13
#032321:00230000
#034371:13
#0343b1:00230000
#035361:13
#035321:00230000
#0353b0:13
#035370:00230000
#035370:0013
#0353b0:00000023
#035321:0013
#035361:00000023
#0373b1:0013000000000000
#037381:0000002300000000
#0383b1:13
#038381:0000002400000000
#041321:0013000000000000
#041351:0000002300000000
#042321:13
#042341:0000002400000000
#043321:0013
#043351:00000023
#0433b0:00000013
#044380:23
#0453a0:0014
#045360:00000024
#045321:00000014
#046361:24
#047381:0013
#0473b1:00000023
#049351:0013
#049321:00000023
#051351:0013
#051321:00000023
#053381:0013
#0533b1:00000023
#055321:0000000013230000
#055351:0000000000001323
#0573b1:0013
#057391:0000000000330000
#057371:00000023
#058361:00001424
#059351:0000000013230000
#059381:0000000000001323
#061381:0000000013230000
#061351:0000000000001323
#0623b1:13230000
#062371:0053000000000000
#064361:13230000
#064321:0053000000000000
#065341:0000000014240000
#065321:00000000000000000000000000000000000000000000000000000000000000000054005400540054000000000000000000000000000000000000000000000000
#065351:0000000000000000000000000000000000343434000000000000000000000000
#065391:0000000000001424
#065371:00000000000000000000000000000000000000000000000000000000000000000000000000000000000000000000000000540054005400540000000000000000
#0653a1:0000000000000000000000000000000000000000000000000034343400000000
#066321:13230000
#066361:0053000000000000
#068371:13230000
#0683b1:0053000000000000
#069371:13
#0693b1:00230000
#069320:13
#069360:00230000
#069360:0013
#069320:00000023
#0693b1:0013
#069371:00000023
#071351:0013000000000000
#071321:0000002300000000
#072381:13
#0723a1:0000002400000000
#075381:0013000000000000
#0753b1:0000002300000000
#076351:13
#076321:0000002400000000
#077321:000000000000000000000000000000001c00005c0000000000000000005c0000
#077351:000000000000000000000000000000000000000000000000000000000000000000000000000000000000000000000000000000000000000000000000000000000000000000000000000000000000000000000000000000000000000000000000000000000000000000000000000000000000000000000000000000000000000000000000000000000000000000000000000000000000000000000000000000000000000000000000000000000000000000000000000000000000000000000000000000000000000000000000000000000000000000000000000000000000000000000000000000000000000000000000000000000000000000000000000000000000000000000000000000000000000000000000000000000000000000000000000000000000000000000000000000000000000000000000000000000000000000000000000000000000000000000000000000000000000000000000000000000000000000000000000000000000000000000000000000000000000000000000000000000000000000000000000000000000000000000000000000000000000000000000000000000000000000000000000000000000000000000000000000000000000000000000000000000000000000000000000000000000000000000000000000000000000000000000000000000000000000000000000000000000000000000000000000000000000000000000000000000000000000000000000000000000000000000000000000000000000000000000000000000000005600000000000000000000000000000000000000000000000000000000000000000000000000000000000000000000000000000000000000000000000000000000000000000000000000000000000000000000000000000000000000000000000000000000000056000000000000000000000000000000000000000000000000000000000000000000000000000000000000000000000000000000000000000000000000000000000000000000000000000000005600000000000000000000000000000000000000000000000000000000000000000000000000000000000000000000000000000000000000000000000000000000000000000000000000000000000000000000000000000000000000000000000000000000000000000000000000000000000000000056000000000000000000000000000000000000000000000000000000000000000000000000000000000000000000000000000000000000000000000000000000000000000000000000000000000000000000000000000000000000
#077331:0000000000000000000000000000000000000000000000000000000000000000000000000000000000000000005a00003a005a00000000000000000000000000
#078321:2c
#079321:00001434
#080321:24
#0793a0:0014
#079360:00000034
#0803a0:24
#081320:0013
#081360:00000024
#083320:00001434
#084320:24
#0833a1:0014
#083361:00000034
#0843a1:24
#0853a1:00001424
#085371:0000000000540000
#0883b1:13330000
#0883a1:0034
#088391:00000035
#089381:26
#089320:13343536
#090320:27
#0903b1:13
#0903a1:00340000
#090391:0035
#090381:00000036
#091361:28
#091320:1300350036003728
