This file was generated by Ched 2.6.4.0.
#TITLE ""
#ARTIST ""
#DESIGNER ""
#DIFFICULTY 0
#PLAYLEVEL
#SONGID ""
#WAVE ""
#WAVEOFFSET 0
#JACKET ""
#REQUEST "ticks_per_beat 480"
#00002: 4
#BPM01: 166
#00008: 01
#TIL00: ""
#HISPEED 00
#MEASUREHS 00
#01115:0013001300000000
#01118:00130000
#01112:0013
#0111b:0013
#01215:0000001300000013
#0121b:00130000
#01312:0013000000000000
#0131b:13
#01315:00000013
#03718:0013
#03712:0000000000130000
#0371b:00000013
#03715:0000000000000013
#0381b:13
#03812:1300000000140000
#0381a:0000001400000014
#03912:0013000000130000
#03918:00130013
#03915:0000001300000000
#0391b:0013
#0181b:2313
#01815:0000130000130013
#01818:0013001300001300
#01812:2313
#0191b:13
#01918:0013000000000000
#01915:00130000
#01912:1300001300000000
#0191a:0000000014000014
#01914:00000000000000000000001400000000
#0251a:14
#02512:0014
#0541b:13130013
#05412:0013001300001300
#05418:0013
#05415:0000000000130000
#05518:13000013000000000000000000000000
#05515:00130000130000000000000000000000
#0551b:0000001300000000
#0571a:0014
#05716:0000000000140000
#05712:0000001300001400
#05715:13000013000000000000000000000000
#05718:00130000130000000000000000000000
#0581b:13
#05815:0013000000000000
#05818:00130000
#05812:0000001300000000
#0581a:0024
#05810:41
#05915:13000013000000000000000000000000
#0591b:00130000130000000000000000000000
#05912:0000001300000000
#06018:1300130000130000
#06015:0013000013000000
#06012:0000001300001300
#0601b:0000001300001300
#00215:00130013
#0021b:2300001300000013
#00218:0000000000130000
#00212:2313
#00312:1313
#00315:0013000000000000
#00318:00130000
#0031b:0000001300000000
#0041b:1300000000130000
#00412:13130013
#00418:0000001300000013
#00415:0013
#00515:13
#0051b:0013000000000000
#00512:00130000
#00518:0000001300000000
#0101b:0000001300000000
#01015:0013
#01018:0000000000000013
#01012:0000000000000013
#01010:41
#01518:0013001300000000
#01515:00130000
#0151b:0013
#01512:0013
#01618:0000001300000013
#01612:00130000
#0171b:0013000000001300
#01712:13000013
#01412:0000001300000000
#01415:0000000000000013
#0141b:0000000000000013
#01416:0024
#00618:00130013
#00612:2300001300000013
#00615:0000000000130000
#0061b:2313
#0071b:1313
#00718:0013000000000000
#00715:00130000
#00712:0000001300000000
#00812:1300000000130000
#0081b:13130013
#00815:0000001300000013
#00818:0013
#00918:13
#00912:0013000000000000
#0091b:00130000
#00915:0000001300000000
#02012:0013
#02018:0000130000130013
#02015:0013001300001300
#0201b:0013
#02112:1300000014000014
#02115:0013000000000000
#02118:00000000130000000000001400000000
#0211b:1300001300000000
#02218:0000130013000013
#0221b:0013000000130000
#02215:0000001300001300
#02212:0013
#0231b:13130000
#02315:0013000000000000
#02312:13131400
#0231a:0000000000000014
#02316:00000000000000000000001400000000
#02318:0000001300000000
#02415:0000130013000013
#02412:0013000000130000
#02418:0000001300001300
#0241b:0013
#0261b:13
#02612:13
#03518:00131300
#03512:00131300
#0351b:13000013
#0351b:13
#03515:13000013
#03515:13
#0421a:0000000000140000
#04212:1300001400000014
#0421b:13
#04618:00130013
#04615:0000001300000013
#0461b:0000000000130000
#04612:2413
#0461a:24
#04712:1313
#04715:0013000000000000
#04718:00130000
#0471b:0000001300000000
#0481b:1313
#04812:1300000000000013
#04818:0000130000130000
#04815:0000001300001300
#0491b:13
#04915:0013000000000000
#04918:00130000
#04912:0000001300000000
#05015:00130013
#05018:0000001300000013
#05012:2300000000130000
#0501b:2313
#0511b:1313
#05118:0013000000000000
#05115:00130000
#05112:0000001300000000
#05212:1313
#0521b:1300000000000013
#05215:0000130000130000
#05218:0000001300001300
#05312:13
#05318:0013000000000000
#05315:00130000
#0531b:0000001300000000
#05612:13130013
#0561b:0013001300001300
#05615:0013
#05618:0000000000130000
#06118:13000013000000000000000000000000
#06112:00130000130000000000000000000000
#0611b:0000001300000000
#07015:0013000000000000
#07018:0000000000130000
#07012:23
#0701b:0023
#0701f:21
#0711b:0013
#07112:0000000000130000
#07118:00000013
#07115:0000000000000013
#07110:41
#07212:1300000000000014
#07216:0000000000140000
#0721a:0000001400000000
#0721b:13
#0731b:0013000000001300
#07318:0000130000130000
#07315:0000001313000000
#07412:0013000000000000
#0741b:0000000000130000
#07415:23
#07418:0023
#07616:0000000000140000
#07612:1300001400000000
#0761a:0000000000000014
#0761b:13
#07718:00230013
#07715:0023000000001300
#0771b:0023
#07712:0023
#07918:00000014
#07914:00000014
#0791a:14142400
#07912:0014001424000000
#08018:00130013
#08012:0000001300000000
#08015:0000000000130013
#0801b:0013
#08010:41
#08112:1314
#08118:0013001300000000
#08115:00130000
#0811b:13
#0821b:13130000
#08212:1300000000130000
#08215:0000001300000013
#08218:00001313
#0831b:13
#08318:0013001300001400
#08315:00130000
#08314:00000014
#08312:1324
#0831a:0024
#08415:00130013
#0841b:0000001300000000
#08418:0000000000130013
#08412:0013
#0851b:13
#08515:0013001300000000
#08518:00130000
#0851a:0014
#08512:13
#08612:13130000
#0861b:1300000000130000
#08618:0000001300000013
#08615:00001313
#08712:1313
#08715:0013001300001300
#08718:0000130000130013
#0871b:1313
#0891b:0013001300130013
#08912:14
#08818:0013001300130013
#08812:13
#09012:15
#09018:0013001300130013
#09112:16
#0911b:0013001300130013
#0001b:13
#00012:13
#00018:00131313
#00015:0000001300130013
#00119:13
#00114:0013000000000000
#0011a:00130000
#00113:0000001300000000
#02818:0000131300130000
#02818:0000131300130000
#02815:00000000001300000000000013000000
#02815:00000000001300000000000013000000
#02812:2313
#02812:2313
#0281b:2300000000000013
#0281b:2300000000000013
#02810:41
#02912:1324
#02912:1324
#02918:0013000000000000
#02918:0013000000000000
#02915:00130000
#02915:00130000
#0291b:0000001300000000
#0291b:0000001300000000
#02916:00000000000000000000002400000000
#02916:00000000000000000000002400000000
#0291a:0000000000000024
#0291a:0000000000000024
#03012:1313
#03012:1313
#0301b:1300000000130000
#0301b:1300000000130000
#03018:0000131300000013
#03018:0000131300000013
#03015:00000000001300000000000013000000
#03015:00000000001300000000000013000000
#03112:13
#03112:13
#0311b:0013000000000000
#0311b:0013000000000000
#03115:00130000
#03115:00130000
#03118:0000001300000000
#03118:0000001300000000
#03215:0000131300130000
#03215:0000131300130000
#03218:00000000001300000000000013000000
#03218:00000000001300000000000013000000
#0321b:2313
#0321b:2313
#03212:2300000000000013
#03212:2300000000000013
#0331b:13
#0331b:13
#03315:0013000000000000
#03315:0013000000000000
#03318:00130000
#03318:00130000
#03312:0000001300000024
#03312:0000001300000024
#0331a:0024
#0331a:0024
#03316:00000000000000000000002400000000
#03316:00000000000000000000002400000000
#03412:1313
#03412:1313
#0341b:1300000000130000
#0341b:1300000000130000
#03415:00130013
#03415:00130013
#03418:0000001300000013
#03418:0000001300000013
#06915:13000013
#06915:13
#0691b:13000013
#0691b:13
#06912:00131300
#06918:00131300
#0621b:2300131300000013
#0621b:2300131300000013
#06215:00000000001300000000130000000000
#06215:00000000001300000000130000000000
#06212:2313
#06212:2313
#06218:00000013
#06218:00000013
#0621f:11
#06315:13
#06315:13
#0631b:0013000000000000
#0631b:0013000000000000
#06312:00132400
#06312:00132400
#06318:0000001300000000
#06318:0000001300000000
#06316:00000000000000000000002400000000
#06316:00000000000000000000002400000000
#0631a:0000000000000024
#0631a:0000000000000024
#06412:1313
#06412:1313
#0641b:1300131300000013
#0641b:1300131300000013
#06415:00000000001300000000130000000000
#06415:00000000001300000000130000000000
#06418:00000013
#06418:00000013
#0681b:13130000
#0681b:13130000
#06818:0000001300001300
#06818:0000001300001300
#06812:1300000013000013
#06812:1300000013000013
#06815:0000000000130000
#06815:0000000000130000
#06515:13
#06515:13
#0651b:0013000000000000
#0651b:0013000000000000
#06512:00130000
#06512:00130000
#06518:0000001300000000
#06518:0000001300000000
#06612:2300131300000013
#06612:2300131300000013
#06618:00000000001300000000130000000000
#06618:00000000001300000000130000000000
#0661b:2313
#0661b:2313
#06615:00000013
#06615:00000013
#06718:13
#06718:13
#06712:0013000000000024
#06712:0013000000000024
#0671b:00130000
#0671b:00130000
#06715:0000001300000000
#06715:0000001300000000
#0671a:0024
#0671a:0024
#06716:00000000000000000000002400000000
#06716:00000000000000000000002400000000
#04115:0013
#0411b:0000000000130000
#04112:00000013
#04118:0000000000000013
#07512:0013
#0751b:0000000000130000
#07515:00000013
#07518:0000000000000013
#04518:14140000
#04514:0014001400000000
#04512:0024
#0451a:0024
#04510:41
#02718:2424
#02714:00240000
#04318:0023000000000000
#04315:00230000
#04312:0023
#0431b:0023
#03612:23
#0361b:0023
#04015:23
#04018:0023
#0441b:23
#04412:23
#0255a:64
#02556:00140014
#02552:0054
#02758:1414
#02754:00140000
#0195a:0000000014000014
#01954:00000000000000000000001400000000
#01355:00000013
#00352:0053
#00355:00000013
#01456:0014
#01055:0013
#0075b:0063
#00758:00000013
#02152:0000000014000014
#02158:00000000000000000000001400000000
#02352:0014
#0235a:0000000000000014
#02356:00000000000000000000001400000000
#0385a:0000001400000014
#03852:0000000000140000
#03652:53
#03655:00130000
#0365b:0063
#03658:00000013
#0425a:0000000000140000
#04252:0000001400000014
#04055:63
#04058:0053
#04052:00130000
#0405b:00000013
#04752:0053
#04755:00000013
#0515b:0063
#05158:00000013
#07052:53330000
#07055:0023000000000000
#07058:0000000000230000
#0705b:00006343
#07256:0000000000140000
#0725a:0000001400000000
#07252:0000000000000014
#07452:0023000000000000
#0745b:0000000000230000
#07455:63430000
#07458:00005333
#07656:0000000000140000
#07652:0000001400000000
#0765a:0000000000000014
#07758:00000053
#07755:00000063
#0775b:0063
#07752:0053
#07958:00000054
#07954:00000064
#0795a:0064
#07952:0054
#08052:14
#0805a:14
#08152:0054
#08156:00000014
#08358:00000054
#08354:00000064
#0835a:0064
#08352:0054
#0845a:14
#08452:14
#0855a:0064
#08556:00000014
#03552:00130000
#03558:00130000
#03555:00000013
#0355b:00000013
#06955:00000013
#0695b:00000013
#06952:00130000
#06958:00130000
#04552:0054
#0455a:0064
#04352:0053
#0435b:0063
#0013b0:00001323
#003320:0013
#003350:00000023
#005320:00001323
#0073b0:0013
#007380:00000023
#0093b0:00001323
#010320:13
#010350:00230000
#011320:00000013
#012350:23
#0123b0:0013
#012380:00000023
#013380:00132300
#0143b0:13
#014380:00230000
#0153b0:00000013
#016380:23
#016320:0013
#016350:00000023
#017350:00132300
#0253a0:14
#025360:00240000
#025320:0014
#025360:00000024
#031330:0000000000000000000000000000000015353535250000000000000000000000
#031320:00000000000000000000000000000000000000000000000000000000000000000055005500550055000000000000000000000000000000000000000000000000
#031331:0000000000000000000000000000000015353535250000000000000000000000
#031321:00000000000000000000000000000000000000000000000000000000000000000055005500550055000000000000000000000000000000000000000000000000
#031391:0000000000000000000000000000000000000000000000001535353525000000
#031381:00000000000000000000000000000000000000000000000000000000000000000000000000000000000000000000000000550055005500550000000000000000
#031390:0000000000000000000000000000000000000000000000001535353525000000
#031380:00000000000000000000000000000000000000000000000000000000000000000000000000000000000000000000000000550055005500550000000000000000
#036320:13
#036350:00230000
#0363b0:0013
#036380:00000023
#037320:0013000000000000
#037350:0000002300000000
#040350:13
#040320:00230000
#040380:0013
#0403b0:00000023
#0413b0:0013000000000000
#041380:0000002300000000
#0433b0:0013
#043380:00000023
#043321:0013
#043351:00000023
#045321:0014
#045341:00000024
#0453a0:0014
#045380:00000024
#047320:0013
#047350:00000023
#049380:00001323
#0513b0:0013
#051380:00000023
#053350:00001323
#055320:0000000013230000
#055380:0000000000001323
#0583a0:00001424
#059380:0000000013230000
#059320:0000000000001323
#061350:0000000013230000
#0613b0:0000000000001323
#065330:0000000000000000000000000000000015353535250000000000000000000000
#065320:00000000000000000000000000000000000000000000000000000000000000000055005500550055000000000000000000000000000000000000000000000000
#065331:0000000000000000000000000000000015353535250000000000000000000000
#065321:00000000000000000000000000000000000000000000000000000000000000000055005500550055000000000000000000000000000000000000000000000000
#065391:0000000000000000000000000000000000000000000000001535353525000000
#065381:00000000000000000000000000000000000000000000000000000000000000000000000000000000000000000000000000550055005500550000000000000000
#065390:0000000000000000000000000000000000000000000000001535353525000000
#065380:00000000000000000000000000000000000000000000000000000000000000000000000000000000000000000000000000550055005500550000000000000000
#070320:13230000
#070350:0053000000000000
#0703b0:00001323
#070380:0000000000530000
#071350:0013000000000000
#071320:0000002300000000
#074350:13230000
#074320:0053000000000000
#074380:00001323
#0743b0:0000000000530000
#075380:0013000000000000
#0753b0:0000002300000000
#0773b0:0013
#077380:00000033
#0783b0:23
#077321:0013
#077351:00000033
#078321:23
#0793a1:0014
#079381:00000034
#0803a1:24
#079320:0014
#079340:00000034
#080320:24
#081320:0014
#081360:00000024
#0833a0:0014
#083380:00000034
#0843a0:24
#083321:0014
#083341:00000034
#084321:24
#0853a1:0014
#085361:00000024
