This file was generated by Ched 2.7.0.0.
#TITLE ""
#ARTIST ""
#DESIGNER ""
#DIFFICULTY 0
#PLAYLEVEL
#SONGID ""
#WAVE ""
#WAVEOFFSET 0
#JACKET ""
#REQUEST "ticks_per_beat 480"
#00002: 4
#BPM01: 166
#00008: 01
#TIL00: ""
#HISPEED 00
#MEASUREHS 00
#0001c:12
#00012:12
#00116:0014000000120000
#00115:00160000
#00114:0000001814000000
#00117:12
#00118:0000000014120000
#01012:13001313
#01015:0000001300000000
#01016:0013000000000013
#01018:00130000
#01017:0013
#0101b:2300000000130000
#01010:41
#0111b:13000000001300001300000013000000
#01117:0013000000000013
#01115:0000001300000000
#01118:00000000000000130000000000000000
#01112:13131613
#0121b:00131300
#01214:0000001300000000
#01216:1300000000130000
#01212:0013000013000000
#01219:0000000000000013
#01217:00000013
#0371b:0013
#03718:0000000000161300
#03715:00000000000000000013001600001600
#03712:00000000000000000000000000130016
#03713:14
#03719:14
#03818:1300001300130000
#03819:00140000
#03812:1300000000000013
#03816:0013000014000000
#0381b:0000001300000000
#03813:00000014
#03815:0000000000130013
#0481b:13
#04812:13130000
#04816:0000001300000000
#04818:0000000000130000
#04815:0013000000000013
#01915:00001300000000000000160000160000
#01916:14140000
#01912:13000000000000001300001300001300
#0191b:00000000130000001300001300001300
#01918:0000001300000000
#02612:12
#0261c:12
#02619:0000000012120000
#02615:0000000000001212
#02617:0000121200000000
#0181b:2300001300000013
#01812:0013000000130000
#01818:00000013000000000000001300000000
#01815:00000000000000130000000000000000
#05512:13130000000013001400000000140000
#05515:00000013130000000000000000000000
#0551b:0000001300000000
#0551a:00000000000000000014000014000000
#05516:0000000000140014
#0601b:0000001313001300
#06018:1300130000130000
#06012:1300001300001300
#06015:0013000013000000
#09117:0013000000130000
#0911b:0000001300000013
#07917:0013
#07914:0013
#0791b:00000013
#07918:0000000000000000000000000000000000000000000000000000131500000000
#07912:1515151500000000
#07919:1515151500000000
#08318:00131400
#08314:0014
#0831a:00000014
#08316:0000000000000000000000000000000000000000000000000000141800000000
#08312:0013130000000000
#0831b:1300001300000000
#08315:13
#08919:0000001300000013
#08917:0013000000130000
#0461b:0000001300001300
#04618:0000130000000013
#04615:0013000000130000
#04612:0013
#04716:1313
#0471b:0000001313000000
#04712:0013000000130000
#04717:0000130000130000
#04912:13001313
#04918:0013001300000000
#04915:0000130000130000
#0491b:00130000
#0211a:0013000000000000
#02117:1400000013000013
#0211b:13000000000000000000131300000000
#02112:00000000000000001300000000131300
#02116:00000000000000000000001300000000
#02119:00130000
#02118:0000001300000000
#02115:00140000
#0201b:1300001300000013
#02012:0013000000130000
#02018:00000013000000000000001300000000
#02015:13000000000000130000000000000000
#02318:0013000000000000
#02316:14140000
#0231b:13000000000000001300001300001300
#02312:00000000130000001300001300001300
#02315:00000000000013000000160000160000
#02212:2300001300000013
#0221b:2313000000130000
#02215:00000013000000000000001300000000
#02218:00000000000000130000000000000000
#02412:1300001300000013
#0241b:0013000000130000
#02415:00000013000000000000001300000000
#02418:13000000000000130000000000000000
#02515:1300000000150000
#02512:00140016
#02519:0015
#02516:0013001400000000
#0251b:13
#01315:00001300001300000000000000000000
#01312:13
#0131b:13000013
#0131a:00140000
#01318:0000001400000000
#01313:00000000000000130000000000000000
#01316:00001413
#0141b:13002313
#01418:0000001300000000
#01417:0013000000000013
#01415:00130000
#01416:0013
#01412:2300000000130000
#01512:13000000001300001300000013000000
#01516:0013000000000013
#0151b:13130013
#01518:0000001316000000
#01515:00000000000000130000000000000000
#01612:00131300
#01619:0000001300000000
#01617:1300000000130000
#0161b:0013000013000000
#01614:0000000000000013
#01616:00000013
#01718:00001300001300000000000000000000
#0171b:13
#01712:130000000000000000000000000000000000000000000000140000000000000000000000000000000000000000000000000000000000000000000000000000000000000000000000001300000013000000130000001300000013000000130000
#01714:000000000000000000000000000000000000000000000000000000000000000000000000140000000000000000000000000000000000000000000000000000000000000000000000000000130000001300000013000000130000001300000013
#0171a:00000000000000130000000000000000
#01716:0014
#01713:000000000000000000000000000000000000000000000000000000000000000000000000131313131313131313131313
#0821b:1300001300000013
#08212:1313
#08218:00130013
#08215:0013000000130000
#08018:0000001300000013
#0801b:00131313
#08015:0000000000130000
#08012:0013
#0801a:23
#08013:23
#08010:41
#08112:1300000000130000
#08118:0000001300130000
#08115:00001300000000001300001300000000
#0811b:00131300
#0871b:0013130013000000
#08718:1300000000130000
#08715:00130013
#08712:1300001300000013
#08716:0000000014000014
#08713:0000000000140000
#08719:00000014
#09013:0000001300000013
#09016:0013000000130000
#08815:0000001300000013
#08816:0013000000130000
#04112:0000000013160000
#04115:00000000000000000000001613001600
#04118:00000000000000000013000000000016
#0411b:00000000000000000000000000130000
#04113:14
#04119:14
#04212:0000001300000000
#04216:0014
#04219:00000014
#04215:1300001300130000
#04213:00140000
#0421b:1300000000000013
#04217:0013000000000000
#04218:0000000000130013
#0731a:00141414
#07316:1414141414140000
#07312:0014000000140000
#0711b:0013
#07115:00000000000000000013160000000016
#07118:0000000000001316
#07112:00000000000000000000001600130000
#07119:14
#07113:14
#07110:41
#0721b:1300001300000013
#07216:0013140014001400
#07212:1300000000130000
#07218:0000001300000013
#07215:0000000000130000
#07512:0000000013000016
#07515:00000000000000000000160013000016
#07518:00000000000000000013001600000000
#0751b:00000000000000000000000000130000
#07519:14
#07513:14
#04415:0000000012120000
#04419:0000121200000000
#04417:0000000000001212
#05418:16
#05416:00160000
#05414:1316
#05412:00130016
#05417:0016000000000000
#05415:0000001600000000
#0541b:0013
#05413:0000000000160000
#05419:00000013
#05712:00000000000013000014000000000000
#0571b:13130000000013000000000000000000
#05718:00000013130000001400000000000000
#05716:0000000000140000
#0571a:00000000000000000000001400000000
#05714:00000014
#05612:1613
#05614:00160013
#05616:0016
#05618:00000016
#05619:13
#05613:0016000000000000
#0561b:00130000
#05615:0000001600000000
#05617:0000000000160000
#05915:13130000
#05912:00130013000013000000140000140000
#0591b:0000001300000000
#0591a:00000000000000000014000000001400
#05916:00001414
#06112:00000000000013000014000000000000
#0611b:00130013000013000000000000000000
#06116:0000000014141414
#0611a:00000000000000000000000000140000
#06118:13130000
#05818:1600000000140000
#05812:13160014
#05815:0016001600000000
#0581b:00130000
#0581a:00000014
#05814:0024
#05810:41
#07612:1300001300000013
#07616:00141414
#0761b:1300000000130000
#07617:0013000000000000
#07615:0000001300000013
#07618:0000000000130000
#03916:1414140014141400
#03912:0014001400140000
#0391a:00141400
#07716:14
#0771a:0022220000000000
#07714:0022220000000000
#07712:0025
#07719:0025
#04316:14
#0431a:0022220000000000
#04314:0022220000000000
#04312:002c
#00917:00000013
#0091b:00131300
#00919:0000000000130000
#00912:13130000
#00918:0013000000000000
#00915:0000001300000000
#00412:1300000000130000
#0041b:1300001300000000
#00418:0000130000000013
#00415:0013000000000000
#00212:2300001300001300
#00215:0000130000000013
#0021b:2313
#00218:0013000000130000
#00318:13
#00312:0000001300130000
#0031b:0013000013000000
#00315:00131300
#00317:0000000000130000
#0051b:13130000
#00515:0013000000000000
#00512:00131300
#00518:0000001300000000
#00516:00000013
#00514:0000000000130000
#02815:00000000001300000000000000000000
#02812:23001300000000000000002300000000
#02818:0000231300000000
#0281b:0000000023000023
#02816:0000000000000023
#02810:41
#02915:0013001300000000
#02918:00130000001300000000000000000000
#0291b:00000013000013000000000000000000
#02912:2300230023000023
#02916:00000000000000000000002300000000
#04014:14
#04018:0014
#04013:0014000000000000
#04019:2200000000140000
#04015:0022
#04012:00240000
#0401a:00000024
#03018:00000000001300000000000000000000
#0301b:23001300000000000000002300000000
#03015:0000231300000000
#03012:0000000023000023
#03017:0000000000000023
#03218:00000000001300000000000000000000
#03216:2313000000000023
#03215:0000001300000000
#03212:00232300
#03217:00000000000000000000002300000000
#0321b:0000000000000023
#03415:00000000001300000000000000000000
#03417:2313000000000023
#03418:0000001300000000
#0341b:00232300
#03416:00000000000000000000002300000000
#03412:0000000000000023
#0351a:0014000014000000
#03512:1400000000140000
#06215:00000000001300000000000000000000
#06216:0013000000000023
#06218:0000001300000000
#0621f:11
#06212:2323
#0621b:00000000230000000000002300002300
#06418:00000000001300000000000000000000
#06417:0013000000000023
#06415:0000001300000000
#0641b:2323
#06412:00000000230000000000002300002300
#06615:00000000001300000000000000000000
#06612:0013000023000000
#0661b:00000000000013000000002300002300
#06616:2300000000000023
#06618:00230000
#06818:00000000001300000000000000000000
#06812:00000000000013000000002300002300
#0681b:0013000023000000
#06815:00230000
#06817:2300000000000023
#02712:001400000014000000140000001400000014000000140000000000000000000000000000000000000000000000000000000000000000000000000000000000000000000000000000000000000000000000000000000000000000000000000000
#02713:241414141414141414141414000000000000000000000000250000000000000000000000000000000000000000000000
#02714:000000140000001400000014000000140000001400000014000000000000000000000000000000000000000000000000000000000000000000000000000000000000000000000000000000000000000000000000000000000000000000000000
#02719:240000000000000000000000000000000000000000000000001500000015000000150000001500000015000000150000000000000000000000000000000000000000000000000000000000000000000000000000000000000000000000000000
#02718:000000000000000000000000251515151515151515151515000000000000000000000000000000000000000000000000
#02717:000000000000000000000000000000000000000000000000000000150000001500000015000000150000001500000015000000000000000000000000000000000000000000000000000000000000000000000000000000000000000000000000
#03115:000000130000000000000000000000130000000000000000000013000000130000000000000000000000000000000000
#0311b:230000230000231300000000
#03118:000000130000000000130000000000000000001300230000
#03112:000000000000000000130000000000000000130000000000000000000000000000000000230000001300000000000000
#0651b:000000000000000000130000000000000000130000000000000013000000130000000000000000000000000000000000
#06515:230000230000231300000000
#06512:000000130000000000130000000000000000001300230000
#06518:000000130000000000000000000000130000000000000000000000000000000000000000230000001300000000000000
#07015:00130013000000000000000000000000
#07012:2313260000000000
#07018:00000000000000000013001326000000
#0701b:0000000023130000
#0701f:21
#07412:26161616260000000000000000000000
#07418:00000000000000002616161626000000
#07819:0000000012120000
#07815:0000121200000000
#07817:0000000000001212
#03614:14
#03618:0014
#03613:0014000000000000
#03619:2200000000140000
#03615:0022
#03612:00240000
#0361a:00000024
#06718:00001300001300000000000000000000
#06715:00130000230000000000000000000000
#06712:23000000000013000000002300000000
#0671b:00000013000013000000000000000000
#06716:0000000023000023
#06312:00000013000013000000000000000000
#0631b:00001300000013000000002300000000
#06315:00130000001300000000000000000000
#06317:0000000023000023
#06318:23230000
#03315:00001300001300000000000000000000
#03318:00130000230000000000000000000000
#0331b:2300001323000023
#03312:00000013000013000000000000000000
#03317:00000000000000000000002300000000
#0081b:1300000000130000
#00812:1300001300000000
#00815:0000130000000013
#00818:0013000000000000
#0061b:2300001300001300
#00618:0000130000000013
#00612:2313
#00615:0013000000130000
#00715:13
#0071b:0000001300130000
#00712:0013000013000000
#00718:00131300
#00716:0000000000130000
#05212:13
#0521b:13130000
#05217:0000001300000000
#05215:0000000000130000
#05218:0013000000000013
#05012:2300001300001300
#05015:0000130000000013
#05018:0013000000130000
#0501b:2313
#05117:1313
#05112:0000001313000000
#0511b:0013000000130000
#05116:0000130000130000
#0531b:13001313
#05315:0013001300000000
#05318:0000130000130000
#05312:00130000
#08612:1300001300000013
#0861b:1313
#08615:00130013
#08618:0013000000130000
#08415:0000001300000013
#08412:24131313
#08418:0000000000130000
#0841b:0013
#0841a:24
#0851b:1300000000130000
#08515:0000001300130000
#08518:00001300000000001300001300000000
#08512:00131300
#04512:151515152c000000
#04519:1515151500000000
#04510:41
#0691a:24
#06912:0024
#01052:5313
#01056:0023000000000000
#01057:0053
#0105b:1300000000230000
#01256:6300000000230000
#01252:0023000053000000
#0125b:4313
#07957:0053
#07954:0063
#0795b:00000063
#07958:0000000000000000000000000000000000000000000000000000532500000000
#08358:00135400
#08354:0064
#0835a:00000064
#08356:0000000000000000000000000000000000000000000000000000542800000000
#0835b:63
#08352:00530000
#00154:0054
#00156:0000000000220000
#00158:0000000064220000
#04756:33006343
#04752:0000000000230000
#0475b:00006343
#04757:0000430000230000
#01157:0000000000000023
#0115b:00000063
#01152:0016
#03852:5300000000000033
#03856:0023000000000000
#0385b:0000004300000000
#03858:0000003300430000
#03855:0000000000330043
#01952:0000000013000013
#0195b:00000000000000000000001300000000
#01956:44340000
#02157:3400000013000013
#02156:00000000000000000000001300000000
#02155:00340000
#02356:34440000
#0235b:0000000013000013
#02352:00000000000000000000001300000000
#0145b:6313
#01457:0023000000000000
#01456:0063
#01452:1300000000230000
#01657:5300000000230000
#0165b:0023000063000000
#01652:3313
#01556:0000000000000023
#01552:00000053
#01558:0016
#01356:00001463
#0135b:00000013
#02759:440000000000000000000000000000000000000000000000002500000025000000250000002500000025000000250000000000000000000000000000000000000000000000000000000000000000000000000000000000000000000000000000
#02753:545454545454545454545454340000000000000000000000350000000000000000000000000000000000000000000000
#02752:002400000024000000240000002400000024000000240000000000000000000000000000000000000000000000000000000000000000000000000000000000000000000000000000000000000000000000000000000000000000000000000000
#02754:000000240000002400000024000000240000002400000024000000000000000000000000000000000000000000000000000000000000000000000000000000000000000000000000000000000000000000000000000000000000000000000000
#02758:000000000000000000000000656565656565656565656565450000000000000000000000000000000000000000000000
#02757:000000000000000000000000000000000000000000000000000000250000002500000025000000250000002500000025000000000000000000000000000000000000000000000000000000000000000000000000000000000000000000000000
#08152:3300000000533300
#0815b:00436343
#08158:0000000000230000
#08155:00000000000000000000002300000000
#07252:5300000000330000
#07256:0023000000000000
#0725b:0000004300000043
#07258:0000003300000033
#07255:0000000000430000
#0765b:6300000000430000
#07657:0023000000000000
#07652:0000003300000033
#07655:0000004300000043
#07658:0000000000330000
#0425b:6300000000000043
#04257:0023000000000000
#04252:0000003300000000
#04255:0000004300330000
#04258:0000000000430033
#04658:00130000
#0465b:00000013
#04852:00130013
#04955:00130000
#04952:00000013
#05454:13
#0545b:0013
#05659:13
#05652:0013
#05852:13
#0585b:00130000
#0805b:00130013
#08258:00130013
#06058:13
#06055:0013
#0395a:00246400
#03956:0054000000240000
#07356:00246400
#07352:0054000000240000
#00957:00000053
#00952:00000013
#0095b:00130000
#00255:00130000
#00252:00000013
#00358:43
#0035b:00006313
#00355:00330000
#00352:0000000000530000
#00357:0000000000530000
#00356:00000013
#00458:00130000
#0045b:00000013
#00552:00130000
#00556:00000013
#04052:00340000
#0405a:00000044
#0285b:0000000033000033
#02852:00000000000000000000004300000000
#02952:0000000033000033
#02956:00000000000000000000003300000000
#03052:0000000043000043
#0305b:00000000000000000000003300000000
#03252:0043
#03256:0000000000000033
#03257:00000000000000000000004300000000
#0335b:0000000043000043
#03357:00000000000000000000004300000000
#0345b:0033
#03457:0000000000000043
#03456:00000000000000000000003300000000
#03552:5400340000240000
#0355a:0024000064004400
#06252:0043
#0625b:00000000000000000000003300000000
#06256:0000000000000033
#0635b:00000000000000000000003300000000
#06357:0000000043000043
#0645b:0033
#06452:00000000000000000000004300000000
#06457:0000000000000043
#06652:0043
#0665b:00000000000000000000003300000000
#06656:0000000000000033
#06756:0000000033000033
#06752:00000000000000000000004300000000
#0685b:0033
#06852:00000000000000000000004300000000
#06857:0000000000000043
#06952:00340000
#0695a:00000044
#02558:00440046
#02552:00540036
#02553:0035
#02555:3300000000250000
#02556:0023002400000000
#0255b:63
#02559:0065
#01756:0014
#01753:000000000000000000000000000000000000000000000000000000000000000000000000535353535353535353535353
#01752:000000000000000000000000000000000000000000000000000000000000000000000000000000000000000000000000000000000000000000000000000000000000000000000000002300000023000000230000002300000023000000230000
#01754:000000000000000000000000000000000000000000000000000000000000000000000000000000000000000000000000000000000000000000000000000000000000000000000000000000230000002300000023000000230000002300000023
#07052:00360000
#07058:00000046
#07452:00360000
#07458:00000046
#03652:00340000
#0365a:00000044
#00658:00130000
#0065b:00000013
#00755:33
#00752:00005313
#00758:00430000
#0075b:0000000000630000
#00756:0000000000630000
#00757:00000013
#00855:00130000
#00852:00000013
#05055:00130000
#05052:00000013
#05157:43005333
#0515b:0000000000230000
#05152:00005333
#05156:0000330000230000
#0525b:00130013
#05358:00130000
#0535b:00000013
#08452:00130013
#0855b:4300000000634300
#08552:00335333
#08555:0000000000230000
#08558:00000000000000000000002300000000
#08655:00130013
#08755:00130000
#08752:53
#0875b:00630000
#0003b0:0000122200000000
#000331:0000001222000000
#0003a0:0000000012220000
#000341:0000000000122200
#000390:0000000000001222
#000351:0000000000000012
#001351:22
#001341:0014
#001361:0000000000520000
#001321:00000026
#001380:0000000014522600
#0023b0:0000132300000000
#002350:0000000013230000
#0023b0:0000000000001323
#003350:1323000000000000
#003380:0000132300000000
#0033b0:00001323
#003370:0000000000330000
#003321:0000000000130000
#003361:00000023
#004321:00130000
#004351:0000005323000000
#004380:0013
#0043b0:0000000000532300
#004351:00000013
#004321:0000000000000053
#005321:23
#0053b1:00001323
#006321:0000132300000000
#006381:0000000013230000
#006321:0000000000001323
#007381:1323000000000000
#007351:0000132300000000
#007321:00001323
#007361:0000000000330000
#0073b0:0000000000130000
#007370:00000023
#0083b0:00130000
#008380:0000005323000000
#008351:0013
#008321:0000000000532300
#008380:00000013
#0083b0:0000000000000053
#0093b0:23
#009320:00001323
#009371:00000013
#0103b1:23
#010320:13230000
#010360:0053000000000000
#010370:00001323
#0103b0:0000000000530000
#0113b0:00000013
#011370:0000000000000053
#0123b0:23
#012361:13230000
#012321:0053000000000000
#012321:00001323
#012361:0000000000530000
#013361:00000013
#014321:23
#0143b0:13230000
#014370:0053000000000000
#014360:00001323
#014320:0000000000530000
#015320:00000013
#015360:0000000000000053
#016320:23
#016371:13230000
#0163b1:0053000000000000
#0163b1:00001323
#016371:0000000000530000
#017331:000000000000000000000000000000000000000000000000000000000000000000000000135353535353535353535353
#017321:000000000000000000000000000000000000000000000000000000000000000000000000000000000000000000000000000000000000000000000000000000000000000000000000005300000053000000530000005300000053000000530000
#017341:000000000000000000000000000000000000000000000000000000000000000000000000000000000000000000000000000000000000000000000000000000000000000000000000000000530000005300000053000000530000005300000053
#018331:23
#018321:0000132300000000
#0183b1:0000000013230000
#018321:0000000000001323
#020351:0000132300000000
#020381:0000000013230000
#020351:0000000000001323
#0223b1:0000132300000000
#022321:0000000013230000
#0223b1:0000000000001323
#024381:0000132300000000
#024351:0000000013230000
#024381:0000000000001323
#0253b1:13
#025361:0053000000000000
#025381:00240000
#025320:00140000
#025360:0000005400000000
#025330:0025
#025391:0015
#025351:0000000000550000
#025381:00000026
#027331:145454545454545454545454240000000000000000000000000000000000000000000000000000000000000000000000
#027321:005400000054000000540000005400000054000000540000000000000000000000000000000000000000000000000000000000000000000000000000000000000000000000000000000000000000000000000000000000000000000000000000
#027341:000000540000005400000054000000540000005400000054000000000000000000000000000000000000000000000000000000000000000000000000000000000000000000000000000000000000000000000000000000000000000000000000
#027380:000000000000000000000000155555555555555555555555250000000000000000000000000000000000000000000000
#027390:000000000000000000000000000000000000000000000000005500000055000000550000005500000055000000550000000000000000000000000000000000000000000000000000000000000000000000000000000000000000000000000000
#027370:000000000000000000000000000000000000000000000000000000550000005500000055000000550000005500000055000000000000000000000000000000000000000000000000000000000000000000000000000000000000000000000000
#028370:1323000000000000
#028360:0013
#028320:00000000000000000053002300000000
#028371:00000000000000000000001300000000
#0283b1:0000000000005323
#029371:0000000013005323
#0293b1:00000000000000000053005300000000
#030361:1323000000000000
#030371:0013
#0303b1:00000000000000000053002300000000
#030360:00000000000000000000001300000000
#030320:0000000000005323
#0323b0:1323000000000000
#0323b0:0013
#032370:00000000000000000053002300000000
#032321:00000000000000000000001300000000
#032361:0000000000005323
#033361:0000000013005323
#033321:00000000000000000053005300000000
#034321:1323000000000000
#034321:0013
#034361:00000000000000000053002300000000
#0343b0:00000000000000000000001300000000
#034370:0000000000005323
#035320:14240000
#0353a0:0054000000000000
#0353a0:00001424
#035320:0000000000540000
#036390:12220000
#036380:000000000000000000000000000000000000000000000000000000000000000000000000000000000000000000000000000000000000000000000000000000000000000000000000000000000000000000000000000000000000000000000000000000000000000000000000000000000000000000000000535600000000000000000000000000000000000000000000000000000000000000000000000000000000000000000000000000000000000000000000000000000000000000000000000000000000000000000000000000000000000000000000000000000000000000000000000000000000000000000000000000000000000000000000000000000000000000000000000000000000000000000000000000000000000000000000000000000000000000000000000000000000000000000000000000000000000000000000000000000000000000000000000000000000000000000000000000000000000000000056530000000000000000000000000000000000000000000000000000000000000000000000000000000000000000000000000000000000000000000000000000000000000000000000000000000000000000000000000000000000000000000000000000000000000000000000000000000000000000000000000000000000000000000000000000000000000000000000000000000000000000000000000000000000000000000000000000000000000000000000000000000000000000000000000000000000000000000000000000000000000000000000000000000000000000000000000000000000000000000000000000000000000000000000000000000000000000000000000000000000000000000000000000000000000000000000000000000000000000000000000000000000000000000000000000000000000000000000000000000000000000000000000000000000000000000000000000000000000000000000000000000000000000000000000000000000000000000000000000000000000000000000000000000000000000000000000000000000000000000000000000000000000000000000000000000000000000000000000000000000000000000000000000000000000000000000000000000000000000000000000000000000000000000000000000000000000000000000000000000000000000000000000000000000000000000000000000000000000000000000000000000000000000000000000000000000000000000000000000000000000000000000000000000000000000000000000000000000000000000000000000000000000000000000000000000000000000000000000000000000000000000000000000000000000000000000000000000000000000000000000000000000000000000000000000000000000000000000000000000000000000000000000000000000000000000000000000000000000000000000000000000000000000000000000000000000000000000000000000000000000000000000000000000000000000000000000000000000000000000000000000000000000000000000000000000000000000000000000000000000000000000000000000000000000000000000000000000000000000000000000000000000000000000000000000000000000000000000000000000000000000000000000000000000000000000000000000000000000000000000000000000000000000000000000000000000000000000000000000000000000000000000000000000000000000000000000000000000000000000000000000000000000000000000000000000000000000000000000000000000000000000000000000000000000000000000000000000000000000000000000000000000000000000000000000000000000000000000000000000000000000000000000000000000000000000000000000000000000000000000000000000000000000000000000000000000000000000000000000000000000000000000000000000000000000000000000000000000000000000000000000000000000000000000000000000000000000000000000000000000000000000000000000000000000000000000000000000000000000000000000000000000000000000000000000000000000000000000000000000000000000000000000000000000000000000000000000000000000000000000000000000000000000000000000000000000000000000000000000000000000000000000000000000000000000000000000000000000000000000000000000000000000000000000000000000000000000000000000000000000000000000000000000000000000000000000000000000000000000000000000000000000000000000000000000000000000000000000000000000000000000000000000000000000000000000000000000000000000000000000000000000000000000000000000000000000000000000000000000000000000000000000000000000000000000000000000000000000000000000000000000000000000000000000000000000000000000000000000000000000000000000000000000000000000000000000000000000000000000000000
#036370:0057000000000000
#036350:00000000000000001253005322000000
#036320:000000000000000000000000000000000000000000000000000000000000000000000000000000000000000000000000000000000000000000000000000000000000000000000000000000000000000000000000000000000000000000000000000000000000000000000000000000000000000000000000000000000000000000000000000000000000000000000000000000000000000000000000000000000000000000000000000000000000000000000000000000000000000000000000000000000000000000000000000000000000000000000000000000000000000000000000000000000000000000000000000000000000000000000000000000000000000000000000000000000000000000000000000000000000000000000000000000000000000000000000000000000000000000000000000000000000000000000000000000000000000000000000000000000000000000000000000000000000000000000000000000000000000000000000000000000000000000000000000000000000000000000000000000000000000000000000000000000000000000000000000000000000000000000000000000000000000000000000000000000000000000000000000000000000000000000000000000000000000000000000000000000000000000000000000000000000000000000000000000000000000000000000000000000000000000000000000000000000000000000000000000000000000000000000000000000000000000000000000000000000000000000000000000000000000000000000000000000000000000000000000000000000000000000000000000000000000000000000000000000000000000000000000000000000000000000000000000000000000000000000000000000000000000000000000000000000000000000000000000000000000000000000000000000000000000000000000000000000000000000000000000000000000000000000000000000000000000000000000000000000000000000000000000000000000000000000000000000000000000000000000000000000000000000000000000000000000000000000000000000000000000000000000000000000000000000000000000000000000000000000000000000000000000000000000000000000000000000000000000000000000000000000000000000000000000000000000000000000000000000000000000000000000000000000000000000000000000000000000000000000000000000000000000000000000000000000000000000000000000000000000000000000000000000000000000000000000000000000000000000000000000000000000000000000000000000000000000000000000000000000000000000000000000000000000000000000000000000000000000000000000000000000000000000000000000000000000000000000000000000000005600000000000000000000000000000000000000000000000000000000000000000000000000000000000000000000000000000000000000000000000000000000000000000000000000000000000000000000000000000000000000000000000000000000000000000000000000000000000000000000570000000000000000000000000000000000000000000000000000000000000000000000000000000000000000000000000000000000000000000000000000000000000000000000000000000000000000000000000000000000000000000000000000000000000000000000000000000000000000000056000000000000000000000000000000000000000000000000000000000000000000000000000000000000000000000000000000000000000000000000000000000000000000000000000000000000000000000000000000000000000000000000000000000000000000000000000000000000000000000000000000000000000000000000000000000000000000000000000000000000000000000000000000000000000000000000000000000000000000000000000000000000000000000000000000000000000000000000000000000000000000000000000000000000000000000000000000000000000000000000000000000000000000000000000000000000000000000000000000000000000000000000000000000000000000000000000000000000000000000000000000000000000000000000000000000000000000000000000000000000000000000000000000000000000000000000000000000000000000000000000000000000000000000000000000000000000000000000000000000000000000000000000000000000000000000000000000000000000000000000000000000000000000000000000000000000000000000000000000000000000000000000000000000000000000000000000000000000000000000000000000000000000000000000000000000000000000000000000000000000000000000000000000000000000000000000000000000000000000000000000000000000000000000000000000000000000000000000000000000000000000000000000000000000000000000000000000000000000000000000
#037330:0013002300000000
#0373a1:00001353005323000000000000000000
#037351:0000000000580000000000580000000000000000000000000000000000000000
#038321:13230000
#038361:0053000000000000
#039361:0014002400000000
#0393a1:00340000
#0393a1:00001424
#039361:0000000000340000
#040391:12220000
#040381:000000000000000000000000000000000000000000000000000000000000000000000000000000000000000000000000000000000000000000000000000000000000000000000000000000000000000000000000000000000000000000000000000000000000000000000000000000000000000000000000535600000000000000000000000000000000000000000000000000000000000000000000000000000000000000000000000000000000000000000000000000000000000000000000000000000000000000000000000000000000000000000000000000000000000000000000000000000000000000000000000000000000000000000000000000000000000000000000000000000000000000000000000000000000000000000000000000000000000000000000000000000000000000000000000000000000000000000000000000000000000000000000000000000000000000000000000000000000000000000056530000000000000000000000000000000000000000000000000000000000000000000000000000000000000000000000000000000000000000000000000000000000000000000000000000000000000000000000000000000000000000000000000000000000000000000000000000000000000000000000000000000000000000000000000000000000000000000000000000000000000000000000000000000000000000000000000000000000000000000000000000000000000000000000000000000000000000000000000000000000000000000000000000000000000000000000000000000000000000000000000000000000000000000000000000000000000000000000000000000000000000000000000000000000000000000000000000000000000000000000000000000000000000000000000000000000000000000000000000000000000000000000000000000000000000000000000000000000000000000000000000000000000000000000000000000000000000000000000000000000000000000000000000000000000000000000000000000000000000000000000000000000000000000000000000000000000000000000000000000000000000000000000000000000000000000000000000000000000000000000000000000000000000000000000000000000000000000000000000000000000000000000000000000000000000000000000000000000000000000000000000000000000000000000000000000000000000000000000000000000000000000000000000000000000000000000000000000000000000000000000000000000000000000000000000000000000000000000000000000000000000000000000000000000000000000000000000000000000000000000000000000000000000000000000000000000000000000000000000000000000000000000000000000000000000000000000000000000000000000000000000000000000000000000000000000000000000000000000000000000000000000000000000000000000000000000000000000000000000000000000000000000000000000000000000000000000000000000000000000000000000000000000000000000000000000000000000000000000000000000000000000000000000000000000000000000000000000000000000000000000000000000000000000000000000000000000000000000000000000000000000000000000000000000000000000000000000000000000000000000000000000000000000000000000000000000000000000000000000000000000000000000000000000000000000000000000000000000000000000000000000000000000000000000000000000000000000000000000000000000000000000000000000000000000000000000000000000000000000000000000000000000000000000000000000000000000000000000000000000000000000000000000000000000000000000000000000000000000000000000000000000000000000000000000000000000000000000000000000000000000000000000000000000000000000000000000000000000000000000000000000000000000000000000000000000000000000000000000000000000000000000000000000000000000000000000000000000000000000000000000000000000000000000000000000000000000000000000000000000000000000000000000000000000000000000000000000000000000000000000000000000000000000000000000000000000000000000000000000000000000000000000000000000000000000000000000000000000000000000000000000000000000000000000000000000000000000000000000000000000000000000000000000000000000000000000000000000000000000000000000000000000000000000000000000000000000000000000000000000000000000000000000000000000000000000000000000000000000000000000000000000000000000000000000000000000000000000000000000000000000000000000000000000000000000000000000000000000000000000000000000000000000000000000000000000000000000000000000000000000
#040371:0057000000000000
#040351:00000000000000001253005322000000
#040321:000000000000000000000000000000000000000000000000000000000000000000000000000000000000000000000000000000000000000000000000000000000000000000000000000000000000000000000000000000000000000000000000000000000000000000000000000000000000000000000000000000000000000000000000000000000000000000000000000000000000000000000000000000000000000000000000000000000000000000000000000000000000000000000000000000000000000000000000000000000000000000000000000000000000000000000000000000000000000000000000000000000000000000000000000000000000000000000000000000000000000000000000000000000000000000000000000000000000000000000000000000000000000000000000000000000000000000000000000000000000000000000000000000000000000000000000000000000000000000000000000000000000000000000000000000000000000000000000000000000000000000000000000000000000000000000000000000000000000000000000000000000000000000000000000000000000000000000000000000000000000000000000000000000000000000000000000000000000000000000000000000000000000000000000000000000000000000000000000000000000000000000000000000000000000000000000000000000000000000000000000000000000000000000000000000000000000000000000000000000000000000000000000000000000000000000000000000000000000000000000000000000000000000000000000000000000000000000000000000000000000000000000000000000000000000000000000000000000000000000000000000000000000000000000000000000000000000000000000000000000000000000000000000000000000000000000000000000000000000000000000000000000000000000000000000000000000000000000000000000000000000000000000000000000000000000000000000000000000000000000000000000000000000000000000000000000000000000000000000000000000000000000000000000000000000000000000000000000000000000000000000000000000000000000000000000000000000000000000000000000000000000000000000000000000000000000000000000000000000000000000000000000000000000000000000000000000000000000000000000000000000000000000000000000000000000000000000000000000000000000000000000000000000000000000000000000000000000000000000000000000000000000000000000000000000000000000000000000000000000000000000000000000000000000000000000000000000000000000000000000000000000000000000000000000000000000000000000000000000000000005600000000000000000000000000000000000000000000000000000000000000000000000000000000000000000000000000000000000000000000000000000000000000000000000000000000000000000000000000000000000000000000000000000000000000000000000000000000000000000000570000000000000000000000000000000000000000000000000000000000000000000000000000000000000000000000000000000000000000000000000000000000000000000000000000000000000000000000000000000000000000000000000000000000000000000000000000000000000000000056000000000000000000000000000000000000000000000000000000000000000000000000000000000000000000000000000000000000000000000000000000000000000000000000000000000000000000000000000000000000000000000000000000000000000000000000000000000000000000000000000000000000000000000000000000000000000000000000000000000000000000000000000000000000000000000000000000000000000000000000000000000000000000000000000000000000000000000000000000000000000000000000000000000000000000000000000000000000000000000000000000000000000000000000000000000000000000000000000000000000000000000000000000000000000000000000000000000000000000000000000000000000000000000000000000000000000000000000000000000000000000000000000000000000000000000000000000000000000000000000000000000000000000000000000000000000000000000000000000000000000000000000000000000000000000000000000000000000000000000000000000000000000000000000000000000000000000000000000000000000000000000000000000000000000000000000000000000000000000000000000000000000000000000000000000000000000000000000000000000000000000000000000000000000000000000000000000000000000000000000000000000000000000000000000000000000000000000000000000000000000000000000000000000000000000000000000000000000000000000000
#041331:0000000013585300000053582300000000000000000000000000000000000000
#0413a0:0013002300000000
#0423b0:13230000
#042370:0053000000000000
#043320:000000000000000000000000000000001c00005c0000000000000000005c0000
#043350:000000000000000000000000000000000000000000000000000000000000000000000000000000000000000000000000000000000000000000000000000000000000000000000000000000000000000000000000000000000000000000000000000000000000000000000000000000000000000000000000000000000000000000000000000000000000000000000000000000000000000000000000000000000000000000000000000000000000000000000000000000000000000000000000000000000000000000000000000000000000000000000000000000000000000000000000000000000000000000000000000000000000000000000000000000000000000000000000000000000000000000000000000000000000000000000000000000000000000000000000000000000000000000000000000000000000000000000000000000000000000000000000000000000000000000000000000000000000000000000000000000000000000000000000000000000000000000000000000000000000000000000000000000000000000000000000000000000000000000000000000000000000000000000000000000000000000000000000000000000000000000000000000000000000000000000000000000000000000000000000000000000000000000000000000000000000000000000000000000000000000000000000000000000000000000000000000000000000000000000000000000000000000000000000000000000000000000000000000000000000005600000000000000000000000000000000000000000000000000000000000000000000000000000000000000000000000000000000000000000000000000000000000000000000000000000000000000000000000000000000000000000000000000000000000056000000000000000000000000000000000000000000000000000000000000000000000000000000000000000000000000000000000000000000000000000000000000000000000000000000005600000000000000000000000000000000000000000000000000000000000000000000000000000000000000000000000000000000000000000000000000000000000000000000000000000000000000000000000000000000000000000000000000000000000000000000000000000000000000000056000000000000000000000000000000000000000000000000000000000000000000000000000000000000000000000000000000000000000000000000000000000000000000000000000000000000000000000000000000000000
#043330:0000000000000000000000000000000000000000000000000000000000000000000000000000000000000000005a00003a005a00000000000000000000000000
#044320:2c
#045320:000000000000000000000000000000001c00005c0000000000000000005c0000
#045350:000000000000000000000000000000000000000000000000000000000000000000000000000000000000000000000000000000000000000000000000000000000000000000000000000000000000000000000000000000000000000000000000000000000000000000000000000000000000000000000000000000000000000000000000000000000000000000000000000000000000000000000000000000000000000000000000000000000000000000000000000000000000000000000000000000000000000000000000000000000000000000000000000000000000000000000000000000000000000000000000000000000000000000000000000000000000000000000000000000000000000000000000000000000000000000000000000000000000000000000000000000000000000000000000000000000000000000000000000000000000000000000000000000000000000000000000000000000000000000000000000000000000000000000000000000000000000000000000000000000000000000000000000000000000000000000000000000000000000000000000000000000000000000000000000000000000000000000000000000000000000000000000000000000000000000000000000000000000000000000000000000000000000000000000000000000000000000000000000000000000000000000000000000000000000000000000000000000000000000000000000000000000000000000000000000000000000000000000000000000000005600000000000000000000000000000000000000000000000000000000000000000000000000000000000000000000000000000000000000000000000000000000000000000000000000000000000000000000000000000000000000000000000000000000000056000000000000000000000000000000000000000000000000000000000000000000000000000000000000000000000000000000000000000000000000000000000000000000000000000000005600000000000000000000000000000000000000000000000000000000000000000000000000000000000000000000000000000000000000000000000000000000000000000000000000000000000000000000000000000000000000000000000000000000000000000000000000000000000000000056000000000000000000000000000000000000000000000000000000000000000000000000000000000000000000000000000000000000000000000000000000000000000000000000000000000000000000000000000000000000
#045330:0000000000000000000000000000000000000000000000000000000000000000000000000000000000000000005a00003a005a00000000000000000000000000
#046320:2c
#046350:0000132300000000
#046380:0000000013230000
#046350:0000000000001323
#0473b0:1323000000000000
#047320:0000132300000000
#047360:00001323
#047320:0000000000330000
#0473b1:00001323
#047371:0000000000330000
#048381:00130000
#0483b1:0000005323000000
#048350:0013
#048320:0000000000532300
#0483b1:00000013
#048381:0000000000000053
#049381:23
#0493b1:0000000013332300
#050381:0000132300000000
#050351:0000000013230000
#050381:0000000000001323
#051321:1323000000000000
#0513b1:0000132300000000
#051371:00001323
#0513b1:0000000000330000
#051320:00001323
#051360:0000000000330000
#052350:00130000
#052320:0000005323000000
#052381:0013
#0523b1:0000000000532300
#052320:00000013
#052350:0000000000000053
#053350:23
#053320:0000000013332300
#055380:13230000000000000000000000000000
#0553b0:00000013230000000000000000000000
#057350:13230000000000000000000000000000
#057320:00000013230000000000000000000000
#058340:0000000014240000
#0593b0:13230000000000000000000000000000
#059380:00000013230000000000000000000000
#061320:13230000000000000000000000000000
#061350:00000013230000000000000000000000
#062370:13
#0623b0:0023000000000000
#062370:0013
#0623b0:00000000000000000053002300000000
#062321:00000000000000000000001300000000
#062361:0000000000005323
#063321:0000000013005323
#063361:00000000000000000053005300000000
#064361:13
#064321:0023000000000000
#064361:0013
#064321:00000000000000000053002300000000
#0643b0:00000000000000000000001300000000
#064370:0000000000005323
#0663b0:13
#066370:0023000000000000
#066370:0013
#0663b0:00000000000000000053002300000000
#066321:00000000000000000000001300000000
#066361:0000000000005323
#0673b1:0000000013005323
#067371:00000000000000000053005300000000
#068321:13
#068361:0023000000000000
#068361:0013
#068321:00000000000000000053002300000000
#0683b0:00000000000000000000001300000000
#068370:0000000000005323
#0693a0:14
#069320:00240000
#069320:0014
#0693a0:00000024
#0713a0:00001353535323000000000000000000
#071350:000000000000000000000000000000000000000000000000000000000000005800000000000000000000000000000000000000000000000000000000000000000058000000000000000000000000000000000000000000000000000000000000000000000000000000000000000000000000000000000000000000000000000000000000000000000000000000000000000000000000000000000000000000000000000000000000000000000000000000000000000000000000000000000000
#071390:0000000000000054005400000000000000000000000000000000000000000000
#071331:0000000013545354535453542300000000000000000000000000000000000000
#072321:13230000
#072361:0053000000000000
#073321:0014002400000000
#073361:00340000
#073361:00001424
#073321:0000000000340000
#075331:000000000000000000000000000000000000000000000000130000000000005800000000530000000000540000000000530000000000540000000000530000000058000000000000230000000000000000000000000000000000000000000000000000000000000000000000000000000000000000000000000000000000000000000000000000000000000000000000000000000000000000000000000000000000000000000000000000000000000000000000000000000000000000000000
#0753a0:00001353535323000000000000000000
#075390:0000000000540054005400540000000000000000000000000000000000000000
#0763b0:13230000
#076370:0053000000000000
#077320:0015
#077330:0000000000000000000000000000000000530000000000003300000000000053
#078320:25
#077391:0000000000000000000000000000000015530000000000000000000000000000
#077361:00000033
#0773a1:0000000000000000000000000000000000000000000000000000000000000053
#078391:25
#079341:0013
#079321:00000000000000000053230000000000
#079370:0013
#079390:00000000000000000053230000000000
#079350:0000000000001323
#0793b1:00000013
#079381:0000000000000000000000000000000000000000000000000000535523000000
#080331:1323000000000000
#0803a0:1323000000000000
#080360:00530000000000000000000000000000
#080350:00130000
#080320:0000002300000000
#080320:00000013
#080350:0000000000000023
#081380:1323000000000000
#081350:0000132300000000
#0813b0:00001323
#081380:0000000000530000
#081321:0000000000132300
#081351:00000000000000000000005300000000
#082321:00130000
#082351:0000002300000000
#082381:0013
#0823b1:0000000000230000
#082351:00000013
#082321:0000000000000023
#0833b1:13
#083381:0023000000000000
#083321:00130000
#083351:0000002300000000
#083341:0014
#083321:00000000000000000054240000000000
#083380:0014
#0833a0:00000000000000000054240000000000
#083320:0000000000001424
#0833a1:00000014
#083361:0000000000000000000000000000000000000000000000000000545824000000
#084321:1424000000000000
#0843a0:1424000000000000
#084360:00540000000000000000000000000000
#084380:00130000
#0843b0:0000002300000000
#0843b0:00000013
#084380:0000000000000023
#085350:1323000000000000
#085380:0000132300000000
#085320:00001323
#085350:0000000000530000
#0853b1:0000000000132300
#085381:00000000000000000000005300000000
#0863b1:00130000
#086381:0000002300000000
#086351:0013
#086321:0000000000230000
#086381:00000013
#0863b1:0000000000000023
#087321:13
#087351:0023000000000000
#0873b1:00130000
#087381:0000002300000000
#0883c1:120000000000000000000000000000000000000000000000000000000000000000000000000000000000000000000000000000000000000000000000000000000000000000000000000000000000000000000000000000000000000000000000000000000000000000000000000000000000000000000000000000000000000000000000000000000000000000000000000000000000000000000000000000000000000000000000000000000000000000000000000000000000000000000000000000000000000000000000000000000000000000000000000000000000000000000000000000000000000000000000000000000000000000000000000000000000000000000000000000000000000000000000000000000000000000000000000000000000000000000000000000000000000000000000000000000000000000000000000000000000000000000000000000000000000000000000000000000000000000000000000000000000000000000000000000000000000000000000000000000000000000000000000000000000000000000000000000000000000000000000000000000000000000000000000000000000005200000000000000000000000000000000000000000000000000000000000000000000000000000000000000000000000000000000000000000000000000000000000000000000000000000000000000000000000000000000000000000000000000000000000000000000000000000000000000000000000000000000000000000000000000000000000000000000000000000000000000000000000000000000000000000000000000000000000000000000000000000000000000000000000000000000000000000000000000000000000000000000000000000000000000000000000000000000000000000000000000000000000000000000000000000000000000000000000000000000000000000000000000000000000000000000000000000000000000000000000000000000000000000000000000000000000000000000000000000000000000000000000000000000000000000000000000000000000000000000000000000000000000000000000000000000000000000000000000000000000000000000000000000000000000000000000000000000000000000000000000000000000000000000000000000000000000000000000000000000000000000000000000000000000000000000000000000000000000000000000000000000000000000000000000000000000000000000000000000000000000000000000000000000000000000000000000000000000000000000000000000000000000000000000000000000000000000052000000000000000000000000000000000000000000000000000000000000000000000000000000000000000000000000000000000000000000000000000000000000000000000000000000000000000000000000000000000000000000000000000000000000000000000000000000000000000000000000000000000000000000000000000000000000000000000000000000000000000000000000000000000000000000000000000000000000000000000000000000000000000000000000000000000000000000000000000000000000000000000000000000000000000000000000000000000000000000000000000000000000000000000000000000000000000000000000000000000000000000000000000000000000000000000000000000000000000000000000000000000000000000000000000000000000000000000000000000000000000000000000000000000000000000000000000000000000000000000000000000000000000000000000000000000000000000000000000000000000000000000000005200000000000000000000000000000000000000000000000000000000000000000000000000000000000000000000000000000000000000000000000000000000000000000000000000000000000000000000000000000000000000000000000000000000000000000000000000000000000000000000000000000000000000000000000000000000000000000000000000000000000000000000000000000000000000000000000000000000000000000000000000000000000000000000000000000000000000000000000000000000000000000000000000000000000000000000000000000000000000000000000000000000000000000000000000000000000000000000000000000000000000000000000000000000000000000000000000000000000000000000000000000000000000000000000000000000000000000000000000000000000000000000000000000000000000000000000000000000000000000000000000000000000000000000000000000000000000000000000000000000000000000000000000000000000000000000000000000000000000000000000000000000000000000000000000000000000000000000000000000000000000000000000000000000000000000000000000000000000000000000000000000000000000000000000000000000000000000000000000000000000000000000000000000000
#0883a1:000000000000000000000000000000000000000000000000000000000000000000000000000000000000000000000000000000000000000000000000000000000000000000000000000000000000000000000000000000000000000000000000000000000000000000000000000000000000000000000000000000000000000000000000000000000000000000000000000000000000000000000000000000000000000000000000000000000000000000000000000000000000000000000000000000000000000000000000000000000000000000000000000000000000000000000000000000000000000000000000000000000000000000000000000000000000000000000000000000000000000000000000000000000000000000000000000000000000000000000000000000000000000000000000000000000000000000000000000000000000000000000000000000000000000000000000000000000000000000000000000000000000000000000000000000000000000000000000000000000000000000000000000000000000000000000000000000000000000000000000000000000000000000000000000000000000000054000000000000000000000000000000000000000000000000000000000000000000000000000000340000000000000000000000000000000000000000000000000000000000000000000000000000005452000000000000000000000000000000000000000000000000000000000000000000000000000000000000000000000000000000000000000000000000000000000000000000000000000000000000000000000000000000000000000000000000000000000000000000000000000000000000000000000000000000000000000000000000000000000000000000000000000000000000000000000000000000000000000000000000000000000000000000000000000000000000000000000000000000000000000000000000000000000000000000000000000000000000000000000000000000000000000000000000000000000000000000000000000000000000000000000000000000000000000000000000000000000000000000000000000000000000000000000000000000000000000000000000000000000000000000000000000000000000000000000000000000000000000000000000000000000000000000000000000000000000000000000000000000000000000000000000000000000000000000000000005254000000000000000000000000000000000000000000000000000000000000000000000000000000340000000000000000000000000000000000000000000000000000000000000000000000000000005400000000000000000000000000000000000000000000000000000000000000000000000000000000000000000000000000000000000000000000000000000000000000000000000000000000000000000000000000000000000000000000000000000000000000000000000000000000000000000000000000000000000000000000000000000000000000000000000000000000000000000000000000000000000000000000000000000000000000000000000000000000000000000000000000000000000000000000000000000000000000000000000000000000000000000000000000000000000000000000000000000000000000000000000000000000000000000000000000000000000000000000000000000000000000000000000000000000000000000000000000000000000000000000000000000000000000000000000000000000000000000000000000000000000000000000000000000000000000000000000000000000000000000000000000000000000000000000000000000000000000000000000000000054000000000000000000000000000000000000000000000000000000000000000000000000000000340000000000000000000000000000000000000000000000000000000000000000000000000000005452000000000000000000000000000000000000000000000000000000000000000000000000000000000000000000000000000000000000000000000000000000000000000000000000000000000000000000000000000000000000000000000000000000000000000000000000000000000000000000000000000000000000000000000000000000000000000000000000000000000000000000000000000000000000000000000000000000000000000000000000000000000000000000000000000000000000000000000000000000000000000000000000000000000000000000000000000000000000000000000000000000000000000000000000000000000000000000000000000000000000000000000000000000000000000000000000000000000000000000000000000000000000000000000000000000000000000000000000000000000000000000000000000000000000000000000000000000000000000000000000000000000000000000000000000000000000000000000000000000000000000000000000000000000000000000000000000000000000000000000000000000000000000000000000000000000000
#0893a1:22
#089320:120000000000000000000000000000000000000000000000000000000000000000000000000000000000000000000000000000000000000000000000000000000000000000000000000000000000000000000000000000000000000000000000000000000000000000000000000000000000000000000000000000000000000000000000000000000000000000000000000000000000000000000000000000000000000000000000000000000000000000000000000000000000000000000000000000000000000000000000000000000000000000000000000000000000000000000000000000000000000000000000000000000000000000000000000000000000000000000000000000000000000000000000000000000000000000000000000000000000000000000000000000000000000000000000000000000000000000000000000000000000000000000000000000000000000000000000000000000000000000000000000000000000000000000000000000000000000000000000000000000000000000000000000000000000000000000000000000000000000000000000000000000000000000000000000000000000005255000000000000000000000000000000000000000000000000000000000000000000000000000000350000000000000000000000000000000000000000000000000000000000000000000000000000005500000000000000000000000000000000000000000000000000000000000000000000000000000000000000000000000000000000000000000000000000000000000000000000000000000000000000000000000000000000000000000000000000000000000000000000000000000000000000000000000000000000000000000000000000000000000000000000000000000000000000000000000000000000000000000000000000000000000000000000000000000000000000000000000000000000000000000000000000000000000000000000000000000000000000000000000000000000000000000000000000000000000000000000000000000000000000000000000000000000000000000000000000000000000000000000000000000000000000000000000000000000000000000000000000000000000000000000000000000000000000000000000000000000000000000000000000000000000000000000000000000000000000000000000000000000000000000000000000000000000000000000000000000055000000000000000000000000000000000000000000000000000000000000000000000000000000350000000000000000000000000000000000000000000000000000000000000000000000000000005552000000000000000000000000000000000000000000000000000000000000000000000000000000000000000000000000000000000000000000000000000000000000000000000000000000000000000000000000000000000000000000000000000000000000000000000000000000000000000000000000000000000000000000000000000000000000000000000000000000000000000000000000000000000000000000000000000000000000000000000000000000000000000000000000000000000000000000000000000000000000000000000000000000000000000000000000000000000000000000000000000000000000000000000000000000000000000000000000000000000000000000000000000000000000000000000000000000000000000000000000000000000000000000000000000000000000000000000000000000000000000000000000000000000000000000000000000000000000000000000000000000000000000000000000000000000000000000000000000000000000000000000000005255000000000000000000000000000000000000000000000000000000000000000000000000000000350000000000000000000000000000000000000000000000000000000000000000000000000000005500000000000000000000000000000000000000000000000000000000000000000000000000000000000000000000000000000000000000000000000000000000000000000000000000000000000000000000000000000000000000000000000000000000000000000000000000000000000000000000000000000000000000000000000000000000000000000000000000000000000000000000000000000000000000000000000000000000000000000000000000000000000000000000000000000000000000000000000000000000000000000000000000000000000000000000000000000000000000000000000000000000000000000000000000000000000000000000000000000000000000000000000000000000000000000000000000000000000000000000000000000000000000000000000000000000000000000000000000000000000000000000000000000000000000000000000000000000000000000000000000000000000000000000000000000000000000000000000000000000000000000000000000000000000000000000000000000000000000000000000000000000000000000000000000000000000000
#089350:000000000000000000000000000000000000000000000000000000000000000000000000000000000000000000000000000000000000000000000000000000000000000000000000000000000000000000000000000000000000000000000000000000000000000000000000000000000000000000000000000000000000000000000000000000000000000000000000000000000000000000000000000000000000000000000000000000000000000000000000000000000000000000000000000000000000000000000000000000000000000000000000000000000000000000000000000000000000000000000000000000000000000000000000000000000000000000000000000000000000000000000000000000000000000000000000000000000000000000000000000000000000000000000000000000000000000000000000000000000000000000000000000000000000000000000000000000000000000000000000000000000000000000000000000000000000000000000000000000000000000000000000000000000000000000000000000000000000000000000000000000000000000000000000000000000000000000000000000000000000000000000000000000000000000000000000000000000000000000000000000000000000000000000000000000000000000000000000000000000000000000000000000000000052000000000000000000000000000000000000000000000000000000000000000000000000000000000000000000000000000000000000000000000000000000000000000000000000000000000000000000000000000000000000000000000000000000000000000000000000000000000000000000000000000000000000000000000000000000000000000000000000000000000000000000000000000000000000000000000000000000000000000000000000000000000000000000000000000000000000000000000000000000000000000000000000000000000000000000000000000000000000000000000000000000000000000000000000000000000000000000000000000000000000000000000000000000000000000000000000000000000000000000000000000000000000000000000000000000000000000000000000000000000000000000000000000000000000000000000000000000000000000000000000000000000000000000000000000000000000000000000000000000000000000000000000005200000000000000000000000000000000000000000000000000000000000000000000000000000000000000000000000000000000000000000000000000000000000000000000000000000000000000000000000000000000000000000000000000000000000000000000000000000000000000000000000000000000000000000000000000000000000000000000000000000000000000000000000000000000000000000000000000000000000000000000000000000000000000000000000000000000000000000000000000000000000000000000000000000000000000000000000000000000000000000000000000000000000000000000000000000000000000000000000000000000000000000000000000000000000000000000000000000000000000000000000000000000000000000000000000000000000000000000000000000000000000000000000000000000000000000000000000000000000000000000000000000000000000000000000000000000000000000000000000000000000000000000000000000000000000000000000000000000000000000000000000000000000000000000000000000000000000000000000000000000000000000000000000000000000000000000000000000000000000000000000000000000000000000000000000000000000000000000000000000000000000000000000000000000000000000000000000000000000000000000000000000000000000000000000000000000000000000052000000000000000000000000000000000000000000000000000000000000000000000000000000000000000000000000000000000000000000000000000000000000000000000000000000000000000000000000000000000000000000000000000000000000000000000000000000000000000000000000000000000000000000000000000000000000000000000000000000000000000000000000000000000000000000000000000000000000000000000000000000000000000000000000000000000000000000000000000000000000000000000000000000000000000000000000000000000000000000000000000000000000000000000000000000000000000000000000000000000000000000000000000000000000000000000000000000000000000000000000000000000000000000000000000000000000000000000000000000000000000000000000000000000000000000000000000000000000000000000000000000000000000000000000000000000000000000000000000000000000000000000000000000000000000000000000000000000000000000000000000000000000000000000000000000000000
#090350:22
#0903c1:120000000000000000000000000000000000000000000000000000000000000000000000000000000000000000000000000000000000000000000000000000000000000000000000000000000000000000000000000000000000000000000000000000000000000000000000000000000000000000000000000000000000000000000000000000000000000000000000000000000000000000000000000000000000000000000000000000000000000000000000000000000000000000000000000000000000000000000000000000000000000000000000000000000000000000000000000000000000000000000000000000000000000000000000000000000000000000000000000000000000000000000000000000000000000000000000000000000000000000000000000000000000000000000000000000000000000000000000000000000000000000000000000000000000000000000000000000000000000000000000000000000000000000000000000000000000000000000000000000000000000000000000000000000000000000000000000000000000000000000000000000000000000000000000000000000000005200000000000000000000000000000000000000000000000000000000000000000000000000000000000000000000000000000000000000000000000000000000000000000000000000000000000000000000000000000000000000000000000000000000000000000000000000000000000000000000000000000000000000000000000000000000000000000000000000000000000000000000000000000000000000000000000000000000000000000000000000000000000000000000000000000000000000000000000000000000000000000000000000000000000000000000000000000000000000000000000000000000000000000000000000000000000000000000000000000000000000000000000000000000000000000000000000000000000000000000000000000000000000000000000000000000000000000000000000000000000000000000000000000000000000000000000000000000000000000000000000000000000000000000000000000000000000000000000000000000000000000000000000000000000000000000000000000000000000000000000000000000000000000000000000000000000000000000000000000000000000000000000000000000000000000000000000000000000000000000000000000000000000000000000000000000000000000000000000000000000000000000000000000000000000000000000000000000000000000000000000000000000000000000000000000000000000000052000000000000000000000000000000000000000000000000000000000000000000000000000000000000000000000000000000000000000000000000000000000000000000000000000000000000000000000000000000000000000000000000000000000000000000000000000000000000000000000000000000000000000000000000000000000000000000000000000000000000000000000000000000000000000000000000000000000000000000000000000000000000000000000000000000000000000000000000000000000000000000000000000000000000000000000000000000000000000000000000000000000000000000000000000000000000000000000000000000000000000000000000000000000000000000000000000000000000000000000000000000000000000000000000000000000000000000000000000000000000000000000000000000000000000000000000000000000000000000000000000000000000000000000000000000000000000000000000000000000000000000000000005200000000000000000000000000000000000000000000000000000000000000000000000000000000000000000000000000000000000000000000000000000000000000000000000000000000000000000000000000000000000000000000000000000000000000000000000000000000000000000000000000000000000000000000000000000000000000000000000000000000000000000000000000000000000000000000000000000000000000000000000000000000000000000000000000000000000000000000000000000000000000000000000000000000000000000000000000000000000000000000000000000000000000000000000000000000000000000000000000000000000000000000000000000000000000000000000000000000000000000000000000000000000000000000000000000000000000000000000000000000000000000000000000000000000000000000000000000000000000000000000000000000000000000000000000000000000000000000000000000000000000000000000000000000000000000000000000000000000000000000000000000000000000000000000000000000000000000000000000000000000000000000000000000000000000000000000000000000000000000000000000000000000000000000000000000000000000000000000000000000000000000000000000000000
#090381:000000000000000000000000000000000000000000000000000000000000000000000000000000000000000000000000000000000000000000000000000000000000000000000000000000000000000000000000000000000000000000000000000000000000000000000000000000000000000000000000000000000000000000000000000000000000000000000000000000000000000000000000000000000000000000000000000000000000000000000000000000000000000000000000000000000000000000000000000000000000000000000000000000000000000000000000000000000000000000000000000000000000000000000000000000000000000000000000000000000000000000000000000000000000000000000000000000000000000000000000000000000000000000000000000000000000000000000000000000000000000000000000000000000000000000000000000000000000000000000000000000000000000000000000000000000000000000000000000000000000000000000000000000000000000000000000000000000000000000000000000000000000000000000000000000000000000056000000000000000000000000000000000000000000000000000000000000000000000000000000360000000000000000000000000000000000000000000000000000000000000000000000000000005652000000000000000000000000000000000000000000000000000000000000000000000000000000000000000000000000000000000000000000000000000000000000000000000000000000000000000000000000000000000000000000000000000000000000000000000000000000000000000000000000000000000000000000000000000000000000000000000000000000000000000000000000000000000000000000000000000000000000000000000000000000000000000000000000000000000000000000000000000000000000000000000000000000000000000000000000000000000000000000000000000000000000000000000000000000000000000000000000000000000000000000000000000000000000000000000000000000000000000000000000000000000000000000000000000000000000000000000000000000000000000000000000000000000000000000000000000000000000000000000000000000000000000000000000000000000000000000000000000000000000000000000000005256000000000000000000000000000000000000000000000000000000000000000000000000000000360000000000000000000000000000000000000000000000000000000000000000000000000000005600000000000000000000000000000000000000000000000000000000000000000000000000000000000000000000000000000000000000000000000000000000000000000000000000000000000000000000000000000000000000000000000000000000000000000000000000000000000000000000000000000000000000000000000000000000000000000000000000000000000000000000000000000000000000000000000000000000000000000000000000000000000000000000000000000000000000000000000000000000000000000000000000000000000000000000000000000000000000000000000000000000000000000000000000000000000000000000000000000000000000000000000000000000000000000000000000000000000000000000000000000000000000000000000000000000000000000000000000000000000000000000000000000000000000000000000000000000000000000000000000000000000000000000000000000000000000000000000000000000000000000000000000000056000000000000000000000000000000000000000000000000000000000000000000000000000000360000000000000000000000000000000000000000000000000000000000000000000000000000005652000000000000000000000000000000000000000000000000000000000000000000000000000000000000000000000000000000000000000000000000000000000000000000000000000000000000000000000000000000000000000000000000000000000000000000000000000000000000000000000000000000000000000000000000000000000000000000000000000000000000000000000000000000000000000000000000000000000000000000000000000000000000000000000000000000000000000000000000000000000000000000000000000000000000000000000000000000000000000000000000000000000000000000000000000000000000000000000000000000000000000000000000000000000000000000000000000000000000000000000000000000000000000000000000000000000000000000000000000000000000000000000000000000000000000000000000000000000000000000000000000000000000000000000000000000000000000000000000000000000000000000000000000000000000000000000000000000000000000000000000000000000000000000000000000000000000
#091381:22
#091320:120000000000000000000000000000000000000000000000000000000000000000000000000000000000000000000000000000000000000000000000000000000000000000000000000000000000000000000000000000000000000000000000000000000000000000000000000000000000000000000000000000000000000000000000000000000000000000000000000000000000000000000000000000000000000000000000000000000000000000000000000000000000000000000000000000000000000000000000000000000000000000000000000000000000000000000000000000000000000000000000000000000000000000000000000000000000000000000000000000000000000000000000000000000000000000000000000000000000000000000000000000000000000000000000000000000000000000000000000000000000000000000000000000000000000000000000000000000000000000000000000000000000000000000000000000000000000000000000000000000000000000000000000000000000000000000000000000000000000000000000000000000000000000000000000000000000005257000000000000000000000000000000000000000000000000000000000000000000000000000000370000000000000000000000000000000000000000000000000000000000000000000000000000005700000000000000000000000000000000000000000000000000000000000000000000000000000000000000000000000000000000000000000000000000000000000000000000000000000000000000000000000000000000000000000000000000000000000000000000000000000000000000000000000000000000000000000000000000000000000000000000000000000000000000000000000000000000000000000000000000000000000000000000000000000000000000000000000000000000000000000000000000000000000000000000000000000000000000000000000000000000000000000000000000000000000000000000000000000000000000000000000000000000000000000000000000000000000000000000000000000000000000000000000000000000000000000000000000000000000000000000000000000000000000000000000000000000000000000000000000000000000000000000000000000000000000000000000000000000000000000000000000000000000000000000000000000057000000000000000000000000000000000000000000000000000000000000000000000000000000370000000000000000000000000000000000000000000000000000000000000000000000000000005752000000000000000000000000000000000000000000000000000000000000000000000000000000000000000000000000000000000000000000000000000000000000000000000000000000000000000000000000000000000000000000000000000000000000000000000000000000000000000000000000000000000000000000000000000000000000000000000000000000000000000000000000000000000000000000000000000000000000000000000000000000000000000000000000000000000000000000000000000000000000000000000000000000000000000000000000000000000000000000000000000000000000000000000000000000000000000000000000000000000000000000000000000000000000000000000000000000000000000000000000000000000000000000000000000000000000000000000000000000000000000000000000000000000000000000000000000000000000000000000000000000000000000000000000000000000000000000000000000000000000000000000000005257000000000000000000000000000000000000000000000000000000000000000000000000000000370000000000000000000000000000000000000000000000000000000000000000000000000000005700000000000000000000000000000000000000000000000000000000000000000000000000000000000000000000000000000000000000000000000000000000000000000000000000000000000000000000000000000000000000000000000000000000000000000000000000000000000000000000000000000000000000000000000000000000000000000000000000000000000000000000000000000000000000000000000000000000000000000000000000000000000000000000000000000000000000000000000000000000000000000000000000000000000000000000000000000000000000000000000000000000000000000000000000000000000000000000000000000000000000000000000000000000000000000000000000000000000000000000000000000000000000000000000000000000000000000000000000000000000000000000000000000000000000000000000000000000000000000000000000000000000000000000000000000000000000000000000000000000000000000000000000000000000000000000000000000000000000000000000000000000000000000000000000000000000000
#091370:000000000000000000000000000000000000000000000000000000000000000000000000000000000000000000000000000000000000000000000000000000000000000000000000000000000000000000000000000000000000000000000000000000000000000000000000000000000000000000000000000000000000000000000000000000000000000000000000000000000000000000000000000000000000000000000000000000000000000000000000000000000000000000000000000000000000000000000000000000000000000000000000000000000000000000000000000000000000000000000000000000000000000000000000000000000000000000000000000000000000000000000000000000000000000000000000000000000000000000000000000000000000000000000000000000000000000000000000000000000000000000000000000000000000000000000000000000000000000000000000000000000000000000000000000000000000000000000000000000000000000000000000000000000000000000000000000000000000000000000000000000000000000000000000000000000000000000000000000000000000000000000000000000000000000000000000000000000000000000000000000000000000000000000000000000000000000000000000000000000000000000000000000000000052000000000000000000000000000000000000000000000000000000000000000000000000000000000000000000000000000000000000000000000000000000000000000000000000000000000000000000000000000000000000000000000000000000000000000000000000000000000000000000000000000000000000000000000000000000000000000000000000000000000000000000000000000000000000000000000000000000000000000000000000000000000000000000000000000000000000000000000000000000000000000000000000000000000000000000000000000000000000000000000000000000000000000000000000000000000000000000000000000000000000000000000000000000000000000000000000000000000000000000000000000000000000000000000000000000000000000000000000000000000000000000000000000000000000000000000000000000000000000000000000000000000000000000000000000000000000000000000000000000000000000000000000005200000000000000000000000000000000000000000000000000000000000000000000000000000000000000000000000000000000000000000000000000000000000000000000000000000000000000000000000000000000000000000000000000000000000000000000000000000000000000000000000000000000000000000000000000000000000000000000000000000000000000000000000000000000000000000000000000000000000000000000000000000000000000000000000000000000000000000000000000000000000000000000000000000000000000000000000000000000000000000000000000000000000000000000000000000000000000000000000000000000000000000000000000000000000000000000000000000000000000000000000000000000000000000000000000000000000000000000000000000000000000000000000000000000000000000000000000000000000000000000000000000000000000000000000000000000000000000000000000000000000000000000000000000000000000000000000000000000000000000000000000000000000000000000000000000000000000000000000000000000000000000000000000000000000000000000000000000000000000000000000000000000000000000000000000000000000000000000000000000000000000000000000000000000000000000000000000000000000000000000000000000000000000000000000000000000000000000052000000000000000000000000000000000000000000000000000000000000000000000000000000000000000000000000000000000000000000000000000000000000000000000000000000000000000000000000000000000000000000000000000000000000000000000000000000000000000000000000000000000000000000000000000000000000000000000000000000000000000000000000000000000000000000000000000000000000000000000000000000000000000000000000000000000000220000000000000000000000000000000000000000000000000000000000000000000000000000000000000000000000000000000000000000000000000000000000000000000000000000000000000000000000000000000000000000000000000000000000000000000000000000000000000000000000000000000000000000000000000000000000000000000000000000000000000000000000000000000000000000000000000000000000000000000000000000000000000000000000000000000000000000000000000000000000000000000000000000000000000000000000000000000000000000000000
