This file was generated by Ched 2.6.4.0.
#TITLE ""
#ARTIST ""
#DESIGNER ""
#DIFFICULTY 0
#PLAYLEVEL
#SONGID ""
#WAVE ""
#WAVEOFFSET 0
#JACKET ""
#REQUEST "ticks_per_beat 480"
#00002: 4
#BPM01: 166
#00008: 01
#TIL00: ""
#HISPEED 00
#MEASUREHS 00
#0021a:14141400
#00314:14141400
#00418:14141400
#00512:14141400
#00618:1414
#00614:00140000
#00714:1414
#00718:00140000
#0081a:1414
#00814:00140000
#00912:1414
#00918:00140000
#0101a:14
#01014:00140000
#01018:0014
#01010:41
#01112:14
#01118:00140000
#01114:0014
#01218:14
#01214:00140000
#0121a:0014
#01314:14
#01318:00140000
#01312:0014
#0141a:14
#01412:00140000
#01418:0024
#01512:14
#0151a:00140000
#01514:0014
#01618:14
#01612:00140000
#0161a:0014
#01714:14
#0171a:00140000
#01712:0014
#0181a:1414
#01814:00140014
#01918:1414
#01912:00140000
#02012:1414
#02018:00140014
#02114:1414
#0211a:00140000
#0221a:0014
#02212:00000014
#02218:14
#02214:00140000
#02314:00140000
#0231a:0014
#02318:14
#02414:14
#02418:00140000
#02412:0014
#0241a:00000014
#02514:14
#02518:00140000
#02512:0014
#02516:00000014
#0261a:14
#03918:0014001400140000
#03914:00141414
#0451a:14140000
#04512:14140000
#04518:0024
#04514:00000024
#04510:41
#04618:0014
#04619:00140000
#04612:24
#0461a:24
#04712:14
#04714:0014
#04713:00140000
#04818:14
#0481a:0014
#04819:00140000
#04914:14
#04912:0014
#04913:00140000
#0501a:14
#05016:0014
#05012:00140000
#05112:14
#05116:0014
#0511a:00140000
#05216:14
#0521a:0014
#05212:00140000
#05316:14
#05312:0014
#0531a:00140000
#0561a:14
#05614:00140000
#05618:0014
#05612:00000014
#0571a:14
#05714:00140000
#05718:0014
#05712:00000014
#0541a:1414
#05414:00140014
#05518:1414
#05512:00140014
#0581a:14
#05812:00140000
#05814:00000014
#05818:0024
#05810:41
#0591a:14
#05912:00140000
#05918:0014
#05914:00000014
#06018:14
#06014:00140000
#0601a:0014
#06012:00000014
#06118:14
#06114:00140000
#0611a:0014
#06116:00000014
#06212:14
#06215:0014
#0621f:11
#0631a:14
#06317:0014
#06415:14
#06412:0014
#06517:14
#0651a:0014
#06615:00140000
#06612:1414
#06717:00140000
#0671a:1414
#06812:00140000
#06815:1414
#07318:0014001400140000
#07314:00141414
#07516:00140014
#0751a:0014
#07512:14
#0791a:14140000
#07912:14140000
#07918:0024
#07914:00000024
#03718:00140000
#03714:0014
#0371a:00000014
#03712:14
#04118:00140000
#04114:0014
#0411a:00000014
#04112:14
#07116:00140014
#0711a:0014
#07112:14
#07110:41
#08316:14000024
#08314:00140000
#08312:0024
#08512:14
#0851a:0014
#08516:00140000
#08412:2414
#08416:00140000
#0841a:24
#0861a:14
#08612:0014
#08616:00140000
#08712:14
#0871a:0014
#08716:00140000
#0691a:00140000
#06917:1414
#08218:00140000
#0821a:0014
#08216:14
#08116:0014
#08114:00140000
#08112:14
#08016:0014
#08018:00140000
#08012:24
#0801a:24
#08010:41
#0271a:24242400
#02712:24242400
#03612:24240000
#0361a:00002424
#04012:24240000
#0401a:00002424
#07012:24240000
#0701a:00002424
#0701f:21
#07412:24240000
#0741a:00002424
#04314:0024
#04318:00000024
#0441a:24
#04412:24
#07714:0024
#07718:00000024
#0781a:24
#07812:24
#02810:41
#01458:0014
#06255:0064
#06252:24
#06357:0054
#0635a:24
#06452:0054
#06455:24
#0655a:0064
#06557:24
#06655:00640000
#06652:5454
#06757:00540000
#0675a:6464
#06852:00540000
#06855:6464
#07052:00140000
#0705a:00000014
#07452:00140000
#0745a:00000014
#0695a:00640000
#06957:5454
#028320:14000024
#028350:00343400
#0293a0:14000024
#029370:00343400
#030350:14000024
#030320:00343400
#031370:14000024
#0313a0:00343400
#032320:1434
#032350:00340024
#0333a0:1434
#033370:00340024
#034350:1434
#034320:00340024
#035370:1434
#0353a0:00340024
#038320:1400003400000024
#038350:0000000000340000
#042320:1400003400000024
#042350:0000000000340000
#062320:14000024
#062350:00343400
#0633a0:14000024
#063370:00343400
#064350:14000024
#064320:00343400
#065370:14000024
#0653a0:00343400
#066320:1434
#066350:00340024
#0673a0:1434
#067370:00340024
#068350:1434
#068320:00340024
#069370:1434
#0693a0:00340024
#072320:1400000000340000
#072350:0000003400000024
#076320:1400000000340000
#076350:0000003400000024
#0883a0:1434000000340000
#088360:0000003400000034
#089360:3434000000340000
#0893a0:0000003400000034
#0903a0:3434000000340000
#090360:0000003400000034
#091360:3434000000340000
#0913a0:0000003400000024
