This file was generated by Ched 2.7.0.0.
#TITLE ""
#ARTIST ""
#DESIGNER ""
#DIFFICULTY 0
#PLAYLEVEL
#SONGID ""
#WAVE ""
#WAVEOFFSET 0
#JACKET ""
#REQUEST "ticks_per_beat 480"
#00002: 4
#BPM01: 130
#00008: 01
#TIL00: ""
#HISPEED 00
#MEASUREHS 00
#00519:14
#00613:14
#00719:14
#00813:14
#0091a:14
#00910:41
#01012:14
#01118:14
#01214:14
#0131a:14
#01412:14
#01518:14
#01614:14
#02518:14
#02510:41
#02618:14
#02712:14
#02812:14
#02014:14
#01914:14
#0181a:14
#0171a:14
#01710:41
#0331a:14
#03310:41
#03412:14
#03712:14
#0381a:14
#04618:14
#04714:14
#0481a:14
#05112:0016
#05118:26
#0511f:21
#05218:1616
#05210:41
#05318:0016
#05312:16
#05412:1616
#05518:16
#05512:0016
#05912:0016
#05918:26
#06312:16
#06318:0016
#06412:16
#06418:0016
#06410:41
#06512:16
#06518:0016
#0691a:14
#07012:14
#07118:14
#07214:14
#0421a:14
#0421f:11
#04314:14
#04418:14
#04512:14
#05712:16
#05718:0016
#06018:16
#06012:0016
#06118:16
#06112:0016
#06718:16
#06712:0016
#06818:16
#06812:0016
#001390:14
#002390:24
#003330:14
#004330:24
#0213a0:14
#0223a0:24
#023340:14
#024340:24
#029380:14
#030380:24
#031320:14
#032320:24
#035380:14
#036380:24
#039340:14
#040340:3400000000000024
#049320:14
#050320:24
#056380:1626
#058320:1626
#062380:1626
#066320:1626
#0733a0:14000000000000003400003400002400
