This file was generated by Ched 2.7.0.0.
#TITLE ""
#ARTIST ""
#DESIGNER ""
#DIFFICULTY 0
#PLAYLEVEL
#SONGID ""
#WAVE ""
#WAVEOFFSET 0
#JACKET ""
#REQUEST "ticks_per_beat 480"
#00002: 4
#BPM01: 130
#00008: 01
#TIL00: ""
#HISPEED 00
#MEASUREHS 00
#00018:00000013
#00015:0000000000000013
#00112:1300000000140000
#00116:00000013000000000000000014000000
#0011a:0000000000000014
#0011b:13000013000013000000000000000000
#00118:0013
#0021b:0013
#00216:0013
#00212:13
#00215:00000013000000000000000000000000
#00218:00001300001300000000000000000000
#0041b:13
#00415:00000013
#00418:0000000000000013
#00417:00130000
#00512:14141414
#0051b:1300000000130000
#0051a:00000013
#00519:0000000000000013
#00517:00000013000000000000000000000000
#00518:0013
#00612:14141414
#0061b:0013001300000013
#00618:13130000
#00712:14141414
#00814:00001300000000000000000000130000
#0081a:00130000000000000000000000000000
#00817:00000013
#00819:0000000000000013
#00816:00000000000000000000000000000013
#00813:13
#00912:00130000000000001300000000000013
#00918:00000013000000000000000013000000
#0091b:2300001300000013
#00915:00000000000000000000130000130000
#00910:41
#01018:1300000000130013
#01015:00130013000000000000000013000000
#01012:0000001300000013
#0101b:0013
#0111b:1300000000130000
#01115:00130000000000000000000000001300
#01112:0013
#01118:00001313
#0121b:1300000013130000
#01217:00001300000000000000000000000013
#01214:0000000000000013
#01219:00000000000000000000000000130000
#01216:00000013
#01212:1313
#01215:00000013000000000000000000000000
#01618:0013000000131300
#01615:00000013000000000000001300000000
#01612:00000000000000000013000000000000
#0161b:0013
#01613:00000000000000130000000000000000
#0161a:0000001300000000
#01614:00000000001300000000000000000000
#01619:00130000
#0171b:23130000
#01715:0000000000130013
#01712:13000013
#01714:0013000000000000
#01716:00130000
#01718:0000001300000000
#01713:0000001300000000
#01710:41
#01815:0013000013000013
#01818:0013000000130000
#0181b:00000013
#01812:0000001300000000
#0211b:13000000130000000000001300000000
#02115:0013001300000013
#02118:0013
#02112:00231323
#02215:0013000013000000
#0221b:00000013000000000000000000000000
#02218:13000000001300000000000013000000
#02212:00230023
#0231b:1300001300001300
#02315:0013001300130000
#02318:0000130000000013
#02312:00230023
#02415:0013000000000000
#0241b:0013130000000000
#02417:0000001300000000
#02412:00000000130000002400002400002400
#0241a:00000000000000000000002400002400
#02419:00000000003300330000000000000000
#03218:0000000000131300
#03215:00000000000000000000001300000000
#03212:0000000013000013
#0321b:0000000013000013
#0331b:1300001300001313
#03312:13000000000000000013000000000000
#03318:00000013000000000000130000000000
#03315:00001300001300000000001300001300
#03310:41
#03412:1300001300001300
#03418:00001300001300000000001300130023
#03415:00000013000000000000130000001300
#0341b:13000000000000000013000000000000
#03512:0013001300001300
#03518:00000013001300000000001300130023
#03515:0000130000130013
#0351b:00000000000000230000000000000000
#0361b:0000001300000000
#03612:0023000000000000
#03715:0013000000130013
#03712:00000000001300000000000013000000
#0371b:23000000000023000013000000000013
#03718:00000023000000000000001300130000
#0381b:00000000001300000000000000000000
#03812:2300002300001300
#03817:00000013
#03814:0000000000000013
#03819:0000000000000013
#03818:0013000000000000
#03815:00000023000000000000000000000000
#03916:1300001300000000
#0391b:13000000001300000000000000001300
#03917:00000000000000000013000000000000
#03918:00000013
#03912:00000013000000000000000000001300
#03915:00000000000000000000001300000000
#04016:1300000000000013
#0401b:13000013
#04012:0000001300000000
#04017:0000001300000000
#0461b:13001313
#04612:14141414
#04618:00000013000000000000130000001300
#04712:14141414
#0471b:13000000001300000000000000000000
#04716:0013000000000000
#04719:00000013000000000000000000001300
#04717:00000013
#0481a:14141414
#04812:1323
#04814:0013000000230000
#04818:0000001300000023
#04816:00130023
#05612:1300000000000000000033130000000000000000000000001300000000000000
#05614:0000000000000013
#05618:0013000013000000
#0561b:13000000001300000000000000000000
#05615:00000013000000000000000000000000
#05617:00000013
#05619:0000000000000013
#05719:0013000013000023
#05714:0013000013000023
#05712:0000130000130000
#05717:0000130000130000
#05716:2300002300002300
#0571b:2300002300002300
#05812:23000000000000140000000000000000
#05814:00000000000000000014001400140014
#05818:0000000014141414
#0581a:0000001400000000
#05817:23
#05918:00001300001300000000000000000000
#05915:0013
#05919:00000013
#05912:00000013001300000000130000000000
#05917:0000000000130000
#05914:00000013
#0591b:0000000000000013
#05916:0000000000000013
#0591a:24
#06015:00001300001300000000000000000000
#06018:1313
#0601b:00000013001300000000000000000000
#06012:24000013
#06017:00000013
#06019:0000000000000013
#06014:0000000000000013
#06212:0013000000001300
#0621b:13000013000000000000000000000000
#06217:00000013
#06214:0000000000000013
#06219:0000000000000013
#06215:00000000001300000000000000000000
#06218:00000000001300000000000000000000
#0631b:1300000000130000
#06317:00000013000000000000000000000000
#06315:0000001300000013
#06312:0013
#06318:00000013
#06316:13
#0641b:0000002300130000
#06419:00000013
#06417:2300000000000013
#06412:23
#06415:0023000000000000
#06413:00230000
#06416:0000002300000000
#0641a:0023000000000000
#06418:00230000
#06410:41
#0661b:0000000000000013
#06612:0000000000000013
#06812:0000002300130000
#0681b:0000001300130000
#06818:0000130013000013
#06815:0000230023000023
#06918:00000013000013000000000000001200
#0691a:14000000000000140000140000000000
#06912:24000000000000240000240000000000
#06915:00002300002300000000000000000000
#06916:00000022
#07312:13000000000000000000002400002400
#07317:0013000000000000
#07315:00000013000000000000000000000000
#07318:00130000
#07314:00000000001300000000000000000000
#07319:0000001300000000
#07313:00000000000000130000000000000000
#0731b:13
#07316:00000000000000000000140000140000
#0731a:0000000024000024
#00312:0013
#00317:13
#00316:00000013
#0131b:00130000000000001300000000000013
#01312:23000013000000001300000000001300
#01315:00000013
#01318:00000000000000000000130000130000
#01415:13000000000000000000130000130000
#01418:00130013000000000000000013000000
#01412:00000000000000001300000000000013
#0141b:0000000013000013
#01518:1300000000130000
#01515:00130000000000001300000013000000
#0151b:00000013000000001300000000001300
#01512:00000013000000000000000000001300
#03117:0000000000000013
#03112:1300001300001313
#03118:0013001300130000
#03115:00130000
#0311b:00230023
#01918:1300001300001300
#01915:00131300
#0191b:0013000000130013
#01912:0013000000000000
#02012:0013001300000013
#0201b:0013000013000000
#02018:0000000000130013
#02015:00000013
#0511b:2300000000130000
#05118:00000013000000000000000013000000
#05115:00000000001300000000000000001300
#05112:0013
#0511f:21
#0521b:0013000000001300
#05215:00000013000000001300000000000000
#05212:13000000001300000000000013000000
#05218:2300000000000013
#05210:41
#05315:00001300000013000000001300000000
#05312:23131300
#05318:00000013000000000000130000001300
#0531b:13002313
#05417:00000013000000000000000013000000
#05412:0013000000001300
#05414:0000000000000013
#05419:0000000000000013
#0541b:23
#05415:23
#05516:13000014
#0551a:0000000000000014
#05512:0000001300140000
#05515:00000013000000001300000000000000
#0551b:1300000000000000000000133300000000000000000000000000000000000000
#05518:00000013000000000000000000000000
#06512:0013000000000000
#0651b:0000000000130000
#06719:13
#0671b:0000000000130000
#06712:0013000000000000
#0701b:00130000000013000000130000001300
#07017:00000013000000000000000000000000
#07012:24000000000000001300000000000013
#07018:00000013
#07015:00000000000000000000130000130000
#07118:1300000000130013
#07115:00130000000000000000000013000000
#07112:00000013000000001300000000001300
#07116:0000001300000000
#0711b:0013
#0721b:13000013000000000000130000000000
#07215:00130000000000000000130000001300
#07212:00000013000000001300000000000000
#07218:00001313
#06116:13
#06115:0000000000130000
#06118:0000000000000013
#02715:0013130000000000
#02718:1300001300000000
#02712:0000001300140014
#0271a:0000000014000014
#02716:0000000000141400
#0271b:0013000000000000
#0281a:0014000000000000
#02816:14
#0281b:0000001300000013
#02812:0013
#02815:0000000000130013
#02818:00000013
#05015:00000013
#05016:00140000140000140000000000000000
#0501a:2414002424000000
#05012:00000024001400000000130000000000
#05018:0000000000000013
#02512:2400130000000013
#0251b:1300000000131313
#02514:00000013
#02519:0013000000000000
#02517:00130000
#02515:0000001300000000
#0251a:0000001300000000
#02516:0000000000130000
#02510:41
#02612:00000013
#02618:0000000013000013
#0261b:0000001300001300
#02615:0000000000130013
#02912:13000000130000000000001300000000
#02918:0013001300000013
#02915:0013
#0291b:00231323
#03018:0013000013000013
#03012:00000013000000000000000000000000
#03015:13000000001300000000000013000000
#0301b:00230023
#0421c:00120012
#0421f:11
#04312:00120012
#0441a:00120000
#04414:00000012
#0451c:00120000
#0451a:0000000000000013
#04519:00000013
#04918:0014000000140000000000002400000000000000000000000000000000000000
#04919:24141414000000000000000000000000
#0491a:0000001400000014000000000000000000000000000000000000000000000000
#04912:0014000000140000000000000000000000000000000000000000000000000000
#04913:24141414000000000000000000000000
#04914:0000001400000014000000002400000000000000000000000000000000000000
#00256:0063
#0335b:1300001300000000
#03358:00000013000000000000000000000000
#03452:1300001300000000
#03455:00000013000000000000000000000000
#0365b:0013000000000000
#03652:0013000000000000
#04056:6300000000000013
#0405b:63000013
#04052:0000006300000000
#04057:0000006300000000
#0585b:00130000
#05856:00130000
#0045b:5343
#00457:00230000
#00452:33
#00152:63
#00156:00000023000000000000000000000000
#00352:1363
#00357:53
#00356:00000023
#0035b:0013
#0065b:0000000000000053
#01255:00000053000000000000000000000000
#01257:0053000000000000
#01658:00000013
#0165b:0013
#0215b:13
#02152:0053
#02258:00000000006300000000000000000000
#0225b:0013
#02358:0000000000000013
#02457:0000002300000000
#0245b:00630000
#03157:0000000000000013
#03152:0000000000000053
#03256:0013000000000000
#0375b:1300001300000000
#03758:00000013000000000000000000000000
#03956:0000006300000000
#0395b:63
#0055b:53
#00557:00000023000000000000000000000000
#0465b:63
#04658:00000023000000000000000000000000
#0475b:00000000006300000000000000000000
#05352:0053
#0535b:53
#05355:00000000000000000000002300000000
#05358:00000023000000000000000000000000
#0515b:13
#05152:0013
#05258:13
#05255:0013
#05456:0013
#0545b:0013
#05958:00000000006300000000000000000000
#0595a:14
#0595b:0013
#05952:00000013000000000000000000000000
#06055:00000000006300000000000000000000
#06052:1413
#0605b:00000013000000000000000000000000
#0685b:0000000000230000
#06852:0000000000230000
#06855:0053
#06858:0053
#0095b:13
#01352:13000053000000000000000000000000
#0155b:00000063000000000000000000000000
#01552:00000063000000000000000000000000
#0175b:13
#01858:0013000000000000
#01855:0013000000000000
#02052:0013000000000000
#0205b:0013000000000000
#06252:0013
#0625b:0013
#06255:00000000006300000000000000000000
#06258:00000000006300000000000000000000
#06556:0000000000000014
#06753:0000000000000014
#06759:0000000000000014
#02856:24
#0285a:0044000000000000
#02852:0034000000000000
#02752:0000002300000064
#0275a:0054
#02756:0000000000240000
#0275b:0023000000000000
#02755:00630000
#02758:63
#07252:00000053000000000000000000000000
#0725b:00000053000000000000000000000000
#04556:0012
#01458:00000053000000000000000000000000
#02552:1400000000000063
#0255b:0000000000000063
#02655:0013000000000063
#02658:0013000000000000
#02952:13
#0295b:0063
#03055:00000000005300000000000000000000
#03052:0013
#04958:0024000000240000000000006400000000000000000000000000000000000000
#04959:64646464000000000000000000000000
#0495a:0000002400000024000000000000000000000000000000001400000000000000
#04952:0024000000240000000000000000000000000000000000000000000000000000
#04953:64646464000000000000000000000000
#04954:0000002400000024000000006400000000000000000000000000000000000000
#0555b:1300000000000000000000230000000000000000000000000000000000000000
#05558:00000063000000003300000000000000
#05652:1300000000000000000000230000000000000000000000000000000000000000
#05655:00000063000000004300000000000000
#06357:00000063000000000000000000000000
#06356:63
#0635b:13
#06352:0013
#03852:1300001300000000
#03855:00000013000000000000000000000000
#0505a:0014
#0645b:0000001300000000
#06456:0000001300000000
#0695a:1400000000140000
#06952:00000000000000140000000000000000
#07052:14
#001320:1300002300000000
#001360:00000033000000000000000000000000
#002320:00000000001300000000000000000000
#002360:0033
#003320:23
#003371:13
#0033b1:0023
#003320:0013
#003360:00000053
#004320:23
#0043b1:1323
#004371:00530000
#0053b1:1300002300000000
#005371:00000033000000000000000000000000
#0063b1:0000000000130033
#006371:00000033
#008371:23
#008351:00130000
#008321:00000000000033000000002300000000
#008341:00000000000000330000000000000000
#008361:0033
#0083a0:00130000
#008370:00000000000033000000002300000000
#008390:00000000000000330000000000000000
#0083b0:0033
#009350:00000013000000000000000000000000
#009320:0000002300000000
#010380:00000013000000000000000000000000
#0103b0:0000002300000000
#0113b0:00000013000000000000000000000000
#011380:0000002300000000
#011321:00000013000000000000000000000000
#011351:0000002300000000
#012371:0013000000000000
#0123b1:0000002300000000
#012350:00000013000000000000000000000000
#012320:0000002300000000
#013320:00000013000000000000000000000000
#013350:0000002300000000
#013381:00000013000023000000000000000000
#014381:00000013000000000000000000000000
#0143b1:0000002300000000
#014350:00000013000023000000000000000000
#0153b0:00000013000000000000000000000000
#015380:0000002300000000
#015321:00000013000000000000000000000000
#015351:0000002300000000
#017381:0000000000130023
#0173b1:00000033
#019321:0000000000130023
#019351:00000033
#021321:0013
#021351:00000000000000000000002300000000
#022381:00000000001300000000000000000000
#0223b1:0023
#0243b1:00130000
#024391:00000000003300330000000000000000
#024371:0000003300000000
#0243a1:0024
#025321:0000000000000013
#026351:0023000000000000
#0253b0:0000000000000013
#026380:0023000000000000
#026350:0000000000000013
#027320:23
#027381:13230000
#0273b1:0033000000000000
#027350:00132300
#027320:0000003300000000
#0273a1:00001424
#027361:0000000000340000
#027321:0000000000000014
#028361:54
#028321:0024000000000000
#0293b1:0013
#029381:00000000000000000000002300000000
#030351:00000000001300000000000000000000
#030321:0023
#031321:0000000000000013
#032361:0023000000000000
#034381:00000000000000000000000000000013
#0353b1:0023000000000000
#0353b1:00000000000000130000000000000000
#035381:0000000000230000
#035381:00000000000000000000000000000013
#0363b1:0023000000000000
#036351:0000001300000000
#036321:0023
#0363b0:0013
#036380:0000000000230000
#036351:0000000000130000
#036321:00000023
#0363b0:00000013
#036380:0000000000000023
#036351:0000000000000013
#037321:23
#0393b1:13
#039371:00000023000000000000000000000000
#039361:0000001300000000
#039321:00000000000000000023000000000000
#0403b1:1300000000230000
#040371:0000003300000000
#040360:1300000000230000
#040320:0000003300000000
#042360:12
#043320:22
#043381:12
#0443c1:22
#044320:12
#044360:0022
#0443c1:0012
#045381:22
#045320:12
#045360:0022
#0463b0:1300002300000000
#046380:00000033000000000000000000000000
#0473b0:00000000001300000000000000000000
#047380:0023
#049390:14545454240000000000000000000000
#049380:0054000000540000000000000000000000000000000000000000000000000000
#0493a0:0000005400000054000000000000000000000000000000000000000000000000
#049331:14545454240000000000000000000000
#049321:0054000000540000000000000000000000000000000000000000000000000000
#049341:0000005400000054000000000000000000000000000000000000000000000000
#049341:0000001400000000
#049321:00000054
#050321:24
#049380:0000001400000000
#0493a0:00000024
#051361:13
#051321:00000023000000000000000000000000
#0513b1:00000000001300000000000000000000
#051371:0023
#052381:00000000001300000000000000000000
#0523b1:0023
#0533b1:1300002300000000
#053381:00000053000000000000000000000000
#053321:0000000013000023
#053351:00000000000000000000005300000000
#054321:00000000001300000000000000000000
#054361:0023
#054370:00000000001300000000000000000000
#0543b0:0023
#055380:00000013000000002300000000000000
#0553b0:0000000000000000000000533300000000000000000000000000000000000000
#056350:00000013000000002300000000000000
#056320:0000000000000000000033530000000000000000000000000000000000000000
#058320:13
#058360:00230000
#058371:13
#0583b1:00230000
#059381:00000000001300000000000000000000
#0593b1:0023
#060351:00000000001300000000000000000000
#060321:0023
#0613b1:13
#061381:0023000000000000
#061350:0013000000000000
#061320:00230000
#0613b1:00130000
#061381:0000002300000000
#061350:0000001300000000
#061320:0023
#061381:00001323
#0613b1:0000000000330000
#061350:00000013
#061320:0000000000000033
#062350:23
#062380:00000000001300000000000000000000
#0623b0:0023
#062351:00000000001300000000000000000000
#062321:0023
#063361:13
#063321:00000023000000000000000000000000
#063370:00000013000000000000000000000000
#0633b0:0000002300000000
#064360:0000000000130000
#064340:00000033
#064320:0000000000000023
#0653b0:0013000000000000
#065370:00230000
#065321:00130000
#065361:0000002300000000
#0653b0:0000001300000000
#065370:0023
#065321:0013
#065361:0000000000230000
#065361:0000000000001424
#066351:0000001300330000
#066321:00003323
#066380:0000001300330000
#0663b0:00003323
#067370:0013000000000000
#0673b0:00230000
#067361:00130000
#067321:0000002300000000
#067370:0000001300000000
#0673b0:0023
#067361:0013
#067321:0000000000230000
#067331:0000000000001424
#067390:0000000000001424
#068350:00001323
#068320:0000000000330000
#068381:00001323
#0683b1:0000000000330000
#070321:00000013000000000000000000000000
#070361:0000002300000000
#071371:00000013000000000000000000000000
#0713b1:0000002300000000
#072321:00000013000000000000000000000000
#072351:0000002300000000
#0723b0:00000013000000000000000000000000
#072380:0000002300000000
