This file was generated by Ched 2.7.0.0.
#TITLE ""
#ARTIST ""
#DESIGNER ""
#DIFFICULTY 0
#PLAYLEVEL
#SONGID ""
#WAVE ""
#WAVEOFFSET 0
#JACKET ""
#REQUEST "ticks_per_beat 480"
#00002: 4
#BPM01: 130
#00008: 01
#TIL00: ""
#HISPEED 00
#MEASUREHS 00
#00018:00000013
#00015:0000000000000013
#0011a:0000000000140000
#00114:00000014
#00118:0000001300000014
#00115:00000013000000001300000000000000
#00112:13
#0011b:13
#00212:1313
#00215:00000013000000000000000000000000
#00218:0013000000000000
#0021b:00000000001300000000000000000000
#00815:1313001313000013
#00818:00130000000000130000000000000000
#0081b:0000130000130000
#00812:00000013
#00915:00130000000013000000000013000000
#00918:2300000013000013
#00912:0000000000130000
#0091b:00000013000000000000000000000000
#00910:41
#0101b:1300000000130000
#01015:00130000000000001300000000001300
#01018:00000013
#0121b:1300000000131300
#01212:0013
#01218:00000013000000000000000000001300
#01215:0013000000000000
#01715:0000130000130013
#01718:0013000000001300
#0171b:0000001300000000
#01712:23
#01710:41
#02112:1313
#02115:0013001300000000
#02118:0000130000000013
#02218:00001300001300000000000000001300
#02215:13000013000000000000000000000000
#02212:00000013
#02315:13130000
#02312:0000000000130013
#02318:0000001300001300
#0231b:0013000000000000
#03218:0013000000131300
#03215:00000000000000000000001300000000
#03212:0013000000000013
#03318:00000013000013000000000013000000
#0331b:1300000000000013
#03315:00001300001300000000130000000000
#03310:41
#03612:0000001300000013
#03618:0023000000130000
#03615:00000013
#0361b:0013
#03715:00001300001300000000130000000000
#03718:00000023000023000000000013000000
#0371b:2300000000000013
#03812:23000013
#03818:00001300001300000000000013000000
#0381b:0000000000000013
#03815:00000023000023000000000000001300
#03918:1300001300001300
#03915:00000000000000000000001300000000
#03912:1300001300000013
#04018:0000000000000013
#0401b:13
#04012:00000013
#04017:0000001300000000
#04615:13000013
#04612:00000013000000000000000000001300
#04618:0000000000130000
#0461b:0013
#0471b:13
#04715:00001300001300000000000000001300
#04718:00000013000000000000000013000000
#0481b:1323
#04815:0013000000230000
#04812:0000001300000023
#04818:00130023
#05615:00000013000000000000000013000000
#05618:0013000000000013
#05612:13000000003300000000000000000000
#05716:0014000014000024
#05712:0000140000140000
#0571a:2400002400002400
#05918:00001300001300000000000013000000
#05915:23000013000000000000000000001300
#05912:0000000000130000
#06215:00001300001300000000000000001300
#06218:13000013000000000000000013000000
#0631b:1300000000130000
#06318:0000001300000013
#06312:0013
#06315:00000013000000000000000013000000
#06415:0000230000130013
#06418:0023000000001300
#06412:23
#0641b:0000002300000000
#06410:41
#0661b:0000000000000013
#06618:0000001300130000
#06615:00001313
#06915:00001300001300000000000000001300
#06918:00000013000000230000000013000000
#06912:0000000000230000
#0691b:23
#07318:0013131326000026
#07315:00000013001300130000000000000000
#07312:00000000000000000000002600000000
#00618:0013000000000013
#0061b:13
#00615:00130013
#00612:0000001300130000
#0181b:0013000000001300
#01815:0000000000130013
#01812:0000001300000000
#01818:0013
#01918:1300001300130013
#01915:00131313
#01912:0013000000000000
#0511b:0000000000130000
#05118:00000013000000000000000013000000
#05115:0000000000000013
#05112:23
#0511f:21
#05318:0013001300001300
#05315:0000130000130013
#0531b:23
#05312:0023
#05418:00000013000000000000000013000000
#05412:0013000000000000
#05415:00000000001300000000000000001300
#0541b:23
#05515:0000003300001300
#05518:0000000000000013
#0551b:1300000000130000
#05512:00000013000000000000000000000000
#05815:0000000000130000
#05818:0000000013000013
#05812:24000013
#0581b:0000001300000000
#06018:23000013000000000000000013000000
#06015:00001300001300000000000000001300
#0651b:0013000000130000
#06518:00131300
#06515:0000001300000000
#06815:0000002300330013
#0681b:0023
#06818:0000230000330000
#06812:0023
#07015:00130000000000000000000013000000
#07012:0013
#07018:2300000000130000
#0701b:0000000000000013
#0241b:0013000000000000
#02415:00130000
#02412:0024
#02418:00000000000000000000002400000000
#02414:0000000000000024
#01112:1300000000000013
#01118:00130000000000000000000013000000
#01115:0000000000130000
#0111b:0013
#04518:0000000000000013
#04512:00000013
#04918:00140000000000000000000000000000
#04919:2414000000000000
#0491a:00000014000000000000000000000000
#04914:0000002400000000
#0201b:0000001300000013
#02018:0000000000130000
#02015:0013
#02012:0013000000001300
#0031b:0013
#00415:0000000013000013
#00418:00000013
#00512:1300000000140000
#00518:00000013000000001300000014000000
#00514:0000000000000014
#00515:0000001300000000
#0051b:13
#01612:13
#01618:00001300130013001333333300000000
#01615:00000013001300130000000000000000
#02518:0000130000130013
#02515:0013000000001300
#02512:0000001300000000
#0251b:23
#02510:41
#0291b:1313
#02918:0013001300000000
#02915:0000130000000013
#03015:00001300001300000000000000001300
#03018:13000013000000000000000000000000
#0301b:00000013
#03118:13130000
#0311b:0000000000130013
#03115:0000001300001300
#03112:0013000000000000
#02612:0013000000001300
#02618:0000000000130013
#0261b:0000001300000000
#02615:0013
#02715:1300001300130013
#02718:00131313
#0271b:0013000000000000
#02812:0000001300000013
#02815:0000000000130000
#02818:0013
#0281b:0013000000001300
#03415:00000013000013000000000000000000
#03418:00001300001300000000000000000000
#03412:13
#0341b:00000000000000000000333333333300
#0351b:00000000000000000000000000000013
#03512:00000033333333000000000000000000
#03518:00000000000000000000003333333300
#05218:00000013000000000000000013000000
#05215:0013000000000013
#0521b:23
#05210:41
#0611b:0013
#06115:0000000000130000
#06118:00000013
#06112:0000000000000013
#06718:1300001300000000
#06712:0013000000130000
#06715:00131300
#07115:1300000000130000
#07118:00130000000000000000000013000000
#0711b:0013
#07112:0000000000000013
#07218:13000013
#07215:00130000000000000000000000001300
#07212:0013
#0721b:0000000000130000
#01412:1300000000130000
#01418:00130000000000001300000000001300
#01415:00000013
#0151b:1300000000000013
#01515:00130000000000000000000013000000
#01518:0000000000130000
#01512:0013
#01318:00130000000013000000000013000000
#01315:2300000013000013
#0131b:0000000000130000
#01312:00000013000000000000000000000000
#0421f:11
#04212:00330000
#0501a:24343434343434340000000000000000
#0431b:00330000
#04412:00330000
#04058:0000000000000013
#04052:00000013
#04057:0000006300000000
#0405b:63
#05854:00140000
#05852:54
#00658:0000000000000063
#01258:00000063000000000000000000000000
#02258:00000000006300000000000000000000
#0225b:0013
#02352:0000000000000013
#03358:0000001300000000
#03758:0000001300000000
#04655:63
#04652:00000023000000000000000000000000
#04755:00000000005300000000000000000000
#05452:0013
#05455:00000000005300000000000000000000
#05958:00000000006300000000000000000000
#0595b:0013
#0185b:0013000000000000
#02152:0053
#06252:0013
#06255:00000000006300000000000000000000
#06555:0000000000000013
#04558:0013
#04958:00240000000000000000000000000000
#04959:6464000000000000
#0495a:00000024000000000000000000000000
#04952:00000014
#04954:0000005400000000
#05552:00000063000000000000000000000000
#05555:0013
#05655:00000063000000000000000000000000
#05652:0013
#0635b:13
#06352:0013
#0685b:0063
#06852:0053
#0645b:0000001300000000
#03658:0013000000000000
#00252:0063
#00355:13
#0035b:0053
#00458:13
#00455:0013
#01658:0053
#0165b:00000013
#02052:0013000000000000
#0315b:0000000000000013
#02652:0013000000000000
#03055:00000000005300000000000000000000
#03052:0013
#0295b:0063
#0285b:0013000000000000
#03455:0000001300000000
#0355b:00000000000000000000000000000053
#03855:0000001300000000
#03958:5300005300000000
#03952:5300005300000000
#05056:0014
#0505a:54
#06055:00000000005300000000000000000000
#06052:0013
#06758:0000000000000013
#002320:0013
#003350:23
#0033b0:0013
#004380:23
#006380:0000000000000013
#0073b0:00000023
#010380:00000013000000000000000000000000
#0103b0:0000002300000000
#011350:00000013000000000000000000000000
#011320:0000002300000000
#012380:00000013000000000000000000000000
#0123b0:0000002300000000
#014350:00000013000000000000000000000000
#014320:0000002300000000
#015380:00000013000000000000000000000000
#0153b0:0000002300000000
#016380:00000000000000001333333300000000
#0163b0:00000023
#021320:0013
#021350:00000000000000000000002300000000
#022380:00000000001300000000000000000000
#0223b0:0023
#0293b0:0013
#029380:00000000000000000000002300000000
#030350:00000000001300000000000000000000
#030320:0023
#0343b0:00000000000000000013333333333300
#034380:00000000000000000000000000000023
#035320:00001333333333000000000000000000
#035350:00000000000000230000000000000000
#035380:00000000000000000000133333333300
#0353b0:00000000000000000000000000000033
#036380:0023000000000000
#039380:13
#0393b0:00000023000000000000000000000000
#039321:13
#039351:00000023000000000000000000000000
#039381:0000001300000000
#0393b1:00000000000000000023000000000000
#039320:0000001300000000
#039350:00000000000000000023000000000000
#0403b0:1300000000230000
#040370:0000003300000000
#042320:13330000
#042360:00000023
#0433b0:13330000
#043370:00000023
#044320:13330000
#044360:00000023
#0453b0:13
#045380:0023
#046350:1300002300000000
#046320:00000033000000000000000000000000
#047350:00000000001300000000000000000000
#047320:0023
#049390:1454240000000000
#049380:00540000000000000000000000000000
#0493a0:00000054000000000000000000000000
#049340:0000001400000000
#049320:00000024
#0503a0:14343434343434340000000000000000
#050360:0024
#051350:00000000001300000000000000000000
#051320:0023
#052350:00000000001300000000000000000000
#052320:0023
#054350:00000000001300000000000000000000
#054320:0023
#055320:00000013000000000000000000000000
#055350:0000003323000000
#056350:00000013000000000000000000000000
#056320:00000000003300002300000000000000
#058320:14
#058340:00240000
#059380:00000000001300000000000000000000
#0593b0:0023
#060350:00000000001300000000000000000000
#060320:0023
#0613b0:13
#061380:0023000000000000
#061350:00130000
#061320:0000002300000000
#062350:00000000001300000000000000000000
#062320:0023
#065350:0000000000001323
#067380:0000000000001323
#0683b0:0013
#068380:0000000000332300
#068321:0013
#068351:0000000000332300
#070381:00000013000000000000000000000000
#0703b1:0000002300000000
#071351:00000013000000000000000000000000
#071321:0000002300000000
#072381:00000013000000000000000000000000
#0723b1:0000002300000000
