This file was generated by Ched 2.7.0.0.
#TITLE ""
#ARTIST ""
#DESIGNER ""
#DIFFICULTY 0
#PLAYLEVEL
#SONGID ""
#WAVE ""
#WAVEOFFSET 0
#JACKET ""
#REQUEST "ticks_per_beat 480"
#00002: 4
#BPM01: 130
#00008: 01
#TIL00: ""
#HISPEED 00
#MEASUREHS 00
#00016:00000013
#00013:0000000000000013
#00018:0000000000000013
#0001b:00000013
#00815:00120000000000000000000000130000
#00812:00000013
#00818:0000000000000013
#0081b:00000000000000001300000013000013
#00817:13
#00816:0013
#00918:00130016000000000000000000130000
#00912:2600000000000013
#00915:00000000000000000000000013000013
#00914:0012
#0091b:0000000000000013
#0091a:0012
#0091c:0000000000120000
#00916:00000012000000000000120000000000
#00910:41
#01015:16130000000000000000000000000000
#0101a:0012
#01014:0012
#01016:00000012
#0101c:00000012
#01012:00000016000000000000120000001200
#01018:00000012000000000000120000001200
#0111b:13
#01118:00130016000000001200000000001200
#01115:13
#01112:0000000000001600001200000000000012000000000000000000000012000000
#0111c:0000000000000000001200000000000000000000120000000000000000000000
#0111a:00000012
#01116:0000000000120000
#01114:00000012
#01218:1300000000001600001200000000000000000000130000000000130000000000
#01212:00001316000000001200000013000013
#01215:1300000000130013
#0121b:0013000000001300
#0121c:0012
#01216:0000000000000000001200000000000000000000000000000000000000000000
#01614:00001400001300000013000000000000
#01612:12000013000000000000001300000000
#01616:00000000140000130000000014000000
#01618:1200001400140000
#0161a:0014
#0171c:00120000
#01716:0000000000120012
#01712:00001212
#01718:0012001200000000
#0171a:24
#01710:41
#01818:0013001300000013
#01815:0013000013001300
#0181c:12121212
#01812:1200000000130000
#0211b:13000000130000001300001300001300
#02118:0013001300000000
#02115:00000013000000130000000000000000
#02116:0000000000000013
#02112:23231323
#02312:000000000000000013001c1c2c000000
#0231b:0013
#02316:0000000000000014
#02415:0013000000000000
#02418:0013000000000000
#02412:1c0000001c1c1c1c2400002400002400
#0241a:00000000000000002400002400002400
#03212:0000130014140000
#03217:00000000000000000000001300000000
#03214:00000014
#0321b:00000000230000000000000000000013
#03216:0000000000000014
#0321a:0014
#03219:00000000000000000000000000130000
#03316:18000000000018000000001300001400
#03312:00001318000000000000000000000013
#0331b:00000000001300000000000000000000
#0331a:0000000000140000
#03318:00000000000000000013000014000000
#03314:00000000000000000000000000130000
#03310:41
#03412:18000000001318000000000000000023
#0341b:0013000000000000
#03416:00000018000000000000140014001424
#0341a:00000000000000000013000000130000
#03413:00000000000000000000001300000000
#03516:00001414001400240000141400140024
#03512:00000000140014000000000000000023
#0351a:0000000000001414
#0351b:00000000000000230000000000000000
#0361a:0000001400002414
#03616:00000000000000140000001400000014
#03612:0024000024140000
#03716:28001400001428000000140000141400
#0371a:00000000140000000000001400000014
#03712:00140028000000000014000014000000
#03812:2800142800001300
#03817:00000013
#03814:0000000000000013
#03819:0000000000000013
#03816:00001428001400000000000000000000
#0381a:00140000000000000000000000000000
#03916:13000000000013000000000000000013
#0391b:1300001300000000
#03914:00000000000000000000000000130000
#03917:00000013000000000013000013000000
#03912:00001300001300001300001300000000
#03919:0000000000000013
#04016:0000000000000014
#04015:00001300000000130000130016000000
#04012:13000000000000001300001300130000
#04018:00000013000013000013000000000000
#0401b:00131300
#04612:1313
#0461a:14141414
#04614:0000000000130000
#04616:00000013
#04618:0012001200000013
#04615:00000013000000000000000000000000
#04712:14141414
#04718:00000013001300000000000000001200
#0471a:00000014
#0471b:13
#04716:0012000000120000
#0481a:14141400
#04812:1214161800000000
#04814:0000000022242628
#05714:0014000000000000
#05717:00140014000000000000000000000000
#0571a:24140000
#05715:00000000000000140014000000260026
#05718:00001426
#05712:0000002400140026
#05816:00000000000000180018001400000000
#05812:16000000000014001400140000180018
#0581a:0000000000001414
#05818:2616000000000000
#0591a:2400001400000000
#05912:00001814000000000000000000001300
#05916:00000000001800000000000000000000
#0591b:0000000000130000
#06216:1414000000001414
#0621a:00000014000000000000000000000000
#0621b:00000000001300000000000013000000
#06212:00000014001300000000000000001300
#06215:0000000000000000000000000013000000000000000000000000000000000000
#06218:0000000000000000000000000013000000000000000000000000000000000000
#0631b:13
#06317:00001313000000000000000000000000
#0631a:0000000000140000
#06316:13000000001300000000140000001400
#06318:00000014
#06312:00000013000000000000000000001400
#06314:00000014
#0641c:0000000000120000
#0641a:00000000002400000000000012000000
#06418:00000024000000000000000000001200
#06412:2426282c00000000
#06416:00240000000000000000000000000000
#06410:41
#06918:00000014000014160000160000000000
#0691a:14
#06912:24000000000000260000260000000000
#06914:00002400002400000000000000000000
#06916:00000022
#07318:00001400000000240000001200001200
#0731a:00000014000000000000000000140000
#07316:00140000000024002200000000002200
#0731c:0012
#07314:14000000002400000000240000000000
#07312:00000000240000000000002200240000
#01315:00130000000000000000000000130000
#01314:0012
#01312:0000000000120013
#01318:26000016000000000000000013000013
#0131c:0000000000120000
#0131a:0012
#01316:00000012000000000000000000000000
#0131b:0000000000000013
#01415:16000000000000000000000000130013
#01418:00130012000000000000120000001300
#01414:0012
#01416:0000000000120000
#01412:00000016000000000000000013000000
#0141b:00000000000000000000000000000013
#0141a:0012
#01515:16130000000000000000000000000000
#0151c:0000000012000012
#01518:0000000000001600001200000000000000000000120000000000000000000000
#01514:00000012
#01516:0000000000000000001200000000000012000000000000000000000012000000
#01512:00000016000000000000120000000000
#0151a:00000012
#03117:0000000000000012
#03112:0000130013001313
#0311b:13231323
#03115:00000013000013000000130000000000
#03118:00001300000000000000001300000000
#03116:13
#02012:001300142c292624
#0201b:0013000000000000
#02018:12
#02016:12140000
#0201a:0000001400000000
#0511b:00000000001300000000130000001300
#05118:0013130000001300
#05115:00000013001300000000130000001300
#05112:0000000000000000000000000013000000000000000000001300000000000000
#05116:13
#0511a:2414
#0511f:21
#0521b:0000000000000000000000000013000000000000000000001300000000000000
#05217:1300000000000013
#05216:00000013
#05215:0013130000000000
#05218:00000013001300000000000000000000
#05212:24000000001300001400000000001300
#05210:41
#05318:00001300000013000000001300000000
#05315:00000013000000000000130000001300
#05312:13132313
#0531b:23131313
#05415:00000013001300000000000000000000
#05412:23000014
#05417:00000013
#05414:0000000000000014
#05419:0000000000000013
#05418:00001300131300000000000000000000
#0541b:23
#05514:00000025000000000000000014000000
#0551b:13001313000000001300000000001300
#05512:0000002500140000
#05518:00000000001313000000000000000000
#05517:0000000000130000
#05516:2500000000000014
#05519:00000013
#06512:0016160016000000
#0651c:0000000000120000
#06516:00000012
#06518:0016001600001200
#06818:0000001414140014
#06816:000000000000000000000000000000000000000000000000000000000000000000000000000000000000000000000000000000000000000000000000000000000000000000000000000000000000000000000000141400000000000000000000000000000000000000000000141400000000000000000000000000000000000000000000141400000000000000000000000000000000000000000000000000000000000000000000000000000000000000000000000000000000000000000000
#06814:1200001414140024
#0681a:12140000
#06812:00240000
#0011b:13001313
#00117:00000013000000000000000000000000
#00116:1300001300001300
#00118:0000000000000013
#00114:0000000000130000
#00112:0013
#05018:00000014
#05016:28181400000028000000140000140000
#05012:00000028181400142c14000000001400
#0501a:0000000000000014
#05014:00000000000000000000001400000000
#04912:0015000000150000000000002400000000001400000000001400000000000000
#04913:00151515000000000000000000000000
#04914:2500001500000015000000000000000000000000000000000000000000000000
#04917:0015000000150000000000000000000000000000000000000000000000000000
#04918:00151515000000000000000000000000
#04919:2500001500000015000000000000000000000000000000000000000000000000
#0491a:00000000000024000014000000000000
#04916:0000000000000014
#02215:00000000000000001300001322000000
#02218:0000000000130000
#02217:13000000001300000000000000000000
#02212:13230000
#0221b:00000013000000000000000000000000
#02216:0013000000000000
#02219:00000022
#02516:0013130000000000
#02512:2400001313001300
#0251b:00000013000000001300000013000000
#02515:0000000000130013
#02518:00000000000000000000001300001300
#02510:41
#02612:13131300
#02616:0000000000001314
#02619:00000000000013000000001200000000
#02617:0013
#02614:0000000000130000
#0261b:1300130000001313
#02615:00000000000000120000000000000000
#0421c:12000012
#04218:00000012000000000000000000000000
#04212:0000000000120000
#0421a:0000000000000012
#04216:0000001200001200
#0421f:11
#04412:12000012
#04416:00000012000000000000000000000000
#0441c:0000000000120000
#04414:0000000000000012
#04418:0000001200001200
#04316:00000000000000120000000012000000
#04314:0000120000000012
#0431a:0012
#04318:1200000000120000
#0431c:0012000000001200
#04312:0000000000120000
#00218:00000012
#0021a:0000000000000012
#00212:13000000001300000000000000000000
#00216:0013000013000000
#0021b:00000013000000001300000000000000
#00217:0000001300000000
#0031c:0000001200120000
#0031a:00000012
#00316:0000000000120000
#00314:00000012
#00312:0000000012000012
#00318:0000000000000012
#01916:12120000
#01912:0012001200000000
#01918:00001212
#0191c:0000000000120012
#03018:00000000000000001300001300000000
#03015:0000000000130000
#0301b:13230023
#03016:13000000001300000000000000000000
#03012:00000013000000000000000013000000
#03017:0013000000000000
#03014:0000000000000013
#00418:00000012
#00415:0000000000000013
#0041a:0000000000120012
#0041c:1212
#00412:0000001200001300
#02912:13000000130000001300001300001300
#02915:0013001300000000
#02918:00000013000000130000000000000000
#0291b:13231323
#02917:0000000000000013
#00512:14141414
#0051b:00000013130000000000130000000000
#0051a:00000013
#00519:0000000000000013
#00518:1313
#00516:0012001200120012
#0061a:14141414
#00618:0012001200120013
#00615:13000013
#00612:00000013130000000000130000000000
#00616:00000000000000000000000000000012
#00712:14141414
#00716:0012001200120012
#0071c:22000022
#0071a:00000022000000002200000000000000
#00718:0000002200000000
#0281a:1414001400000000
#02816:14141300
#02812:0000001400130000
#02817:0000000000000013
#0281b:00000013
#02712:0000000000001414
#0271a:0000000014001414
#02716:00001400000014000014141400000000
#02717:13130000
#0271b:0013000000000000
#04516:2200002200001300
#04514:0000000000000013
#04512:00000022000000000000000000000000
#04518:2200002200000000
#0451c:00000000000000000022000000000000
#05612:13001313000000001300000014000000
#05616:00000014130013000000000000140000000000000000000000000000000000000000000000000000000000000000000000000000000000001400000000000000
#0561a:00000000000000000000000000000000000000000000000000000014130013000000000000000000000000000000000014000000000000000000000000000000
#05615:25001400001300000000000000000000000000001300000013000000000000000000000000000000000000000000000000000000000000000000000000000000
#05618:00000000000000000000000000000014130013000000000000140000000000000000000000000000000000000000000000000000000000000000000000000000
#05619:00000000000000000000000000000000000000130000000025001400001300000000000000000000000000000000000000000000000000000000000000000000
#0561b:00000000000000000000000000000000000000000000000000000000000000130000000000000000000000000000000000000000000000000000000000000000
#05617:00000000000000130000000025001400001300000000000000000000000000000000000000000000000000000000000000000000000000000000000000000000
#05614:00140000000000000000000000000000000000000000000000000000000000000000000000000000000000000000000000000000000000000000000000000000
#06012:24000000001814000000000013000000
#06016:0018000000001414
#0601a:14000014000000000000000000000000
#0601b:0000000000000013
#06112:14000000000000140000000014000000
#0611a:00000000140000001400000000000014
#06116:00000000001414000000000000141400
#0661c:12120000000000001200000000000000
#06616:00001212000000000000000000000000
#0661a:00000000121200000000000012000000
#06614:00000000000012120000001200000000
#06617:00000000000000000012000000001200
#06619:0000000000120000
#06615:00000000000000000000000000120000
#06612:00000000000000000000000000000012
#06716:0000000000120000
#06712:1616001600001600
#06718:16161616
#07018:00130016000000001200000000160016
#0701c:0000000000120000
#0701b:13
#07012:2600000022002626
#07016:00000022000000000000220000000000
#0721c:0000000000000000001200000000000000000000120000000000000000000000
#0721a:00000012
#07218:00000016000000001200000000001200
#07212:2c001c0000002600001200000000000000000000220000000000000000000000
#07216:0000000022000022
#07214:00000022
#07118:16000012000000000000120000001200
#0711c:00001212
#07112:23000026000000000000220000002200
#07116:00002222
#07115:00230000000000000000000000000000
#0365a:0014000000000000
#03652:0014000000000000
#04056:0000000000000014
#04055:00000016
#05858:0026160000000000
#05852:66360000
#01252:00000056000000000000000000000000
#01258:0000000000005600002200000000000000000000000000000000000000000000
#01256:0000000000000000002200000000000000000000000000000000000000000000
#01656:00000014
#0165a:0014
#0215b:13
#02152:0053
#0225b:0013
#02257:63000000006300000000000000000000
#03157:0000000000000012
#03152:0000000000000053
#03257:0012000000000000
#0395b:6300006300000000
#03956:3300003300000000
#04652:53
#04655:00000053000000000000000000000000
#05352:63630000
#0535b:00005353
#0515a:1414
#05156:53
#05155:00000000005300000000000000000000
#05152:0000000000000000000000000023000000000000000000000000000000000000
#05252:1414
#05257:63
#05258:00000000006300000000000000000000
#0525b:0000000000000000000000000023000000000000000000000000000000000000
#0595a:4400006400000000
#05956:0044
#05952:00000044000000000000000000000000
#00952:16
#00958:00000056000000000000000000000000
#00956:00000052000000000000000000000000
#01358:16000056000000000000000000000000
#01356:00000052000000000000000000000000
#0175a:14
#06552:0000560056000016
#06558:0056005600002216
#06556:00000022
#01458:00000052000000000000000000000000
#01452:00000056000000000000000000000000
#02552:14
#02555:0000000000000063
#02558:0000000000000053
#02652:63
#02656:0000000000000064
#0265b:5300000000000063
#02655:0013000000000000
#02658:0013000000000000
#04952:0025000000250000000000006400000000006400000000005400000000000000
#04953:00656565000000000000000000000000
#04954:6500002500000025000000000000000000000000000000000000000000000000
#0495a:00000000000064000064000014000000
#04957:0025000000250000000000000000000000000000000000000000000000000000
#04958:00656565000000000000000000000000
#04959:6500002500000025000000000000000000000000000000000000000000000000
#04956:0000000000000024
#06357:00000063000000000000000000000000
#06356:63
#0635b:13
#06352:0013
#06852:00640000
#06856:000000000000000000000000000000000000000000000000000000000000000000000000000000000000000000000000000000000000000000000000000000000000000000000000000000000000000000000000546400000000000000000000000000000000000000000000645400000000000000000000000000000000000000000000546400000000000000000000000000000000000000000000000000000000000000000000000000000000000000000000000000000000000000000000
#06858:0000002424240000
#06854:0000002424240000
#0685a:00540000
#05052:00000018000000001c00000000000000
#05056:1800001800000000
#06452:1416181c00000000
#0085b:0053
#00856:0053
#01858:0033000000000000
#01855:0043000000000000
#0205b:0043000000000000
#02052:0033000000000000
#00156:53
#00157:00000063000000000000000000000000
#01058:00000062000000000000000000000000
#01052:00000066000000000000000000000000
#03052:0013
#03056:53000000005300000000000000000000
#0295b:0063
#02952:13
#00256:0053
#00655:53
#00652:00530000
#01158:00000056000000000000000000000000
#01152:0000000000005600002200000000000000000000000000000000000000000000
#0115c:0000000000000000002200000000000000000000000000000000000000000000
#01558:0000000000005600002200000000000000000000000000000000000000000000
#01552:00000056000000000000000000000000
#01556:0000000000000000002200000000000000000000000000000000000000000000
#0285a:0044000000000000
#02852:0034000000000000
#02856:24
#02752:0000000000000064
#02756:0064006400000000
#02757:63630000
#0275b:0063000000000000
#03456:00000038000000000000000000000064
#03452:3800003800000000
#03556:00000000000000640000000000000064
#03356:4800004800000000
#03352:00000048000000000000000000000000
#03756:4800004800000000
#03752:00000048000000000000000000000000
#0475b:63
#04758:00000000006300000000000000000000
#05452:0033
#05455:00000000002300000000000000000000
#0545b:0043
#05458:00000000002300000000000000000000
#05552:0000006512000000
#05554:00000065000000000000000000000000
#05556:65
#06052:3400005400000000
#0605a:00000034000000000000000000000000
#06056:0034
#06256:54
#06252:00000000005300003300000000000000
#06255:0000000000000000000000000023000000000000000000000000000000000000
#0625b:00000000006300004300000000000000
#06258:0000000000000000000000000023000000000000000000000000000000000000
#06752:0056005600006600
#06756:0000000000000012
#06758:6600560056005612
#06952:14000000000000460000360000000000
#0695a:14
#06958:00000000000000460000360000000000
#07058:00000056000000000000000000000000
#07052:16
#07056:00000052000000000000000000000000
#07258:00000056000000000000000000000000
#07252:0000000000006600002200000000000000000000000000000000000000000000
#0725c:0000000000000000002200000000000000000000000000000000000000000000
#02359:0000001200000000
#02355:0000001200000000
#02356:0000000000000014
#03852:3800003800000000
#03856:00000038000000000000000000000000
#00558:63
#0055b:00630000
#07158:16000062000000000000000000000000
#07152:00000066000000000000000000000000
#05658:00000000000000000000000000000024630063000000000000240000000000000000000000000000000000000000000000000000000000000000000000000000
#05659:00000000000000000000000000000000000000230000000065006400002300000000000000000000000000000000000000000000000000000000000000000000
#0565b:00000000000000000000000000000000000000000000000000000000000000230000000000000000000000000000000000000000000000000000000000000000
#0565a:00000000000000000000000000000000000000000000000000000024630063000000000000000000000000000000000000000000000000000000000000000000
#05656:00000024630063000000000000240000000000000000000000000000000000000000000000000000000000000000000000000000000000000000000000000000
#05657:00000000000000230000000065006400002300000000000000000000000000000000000000000000000000000000000000000000000000000000000000000000
#05654:00240000000000000000000000000000000000000000000000000000000000000000000000000000000000000000000000000000000000000000000000000000
#05655:65006400002300000000000000000000000000000000000000000000000000000000000000000000000000000000000000000000000000000000000000000000
#0565c:0012
#001360:13
#001320:00000023000000000000000000000000
#001371:00000013000000000000000000000000
#0013b1:0000002300000000
#002371:13
#0023b1:0023000000000000
#002321:0000001300000000
#002361:0033
#003321:23
#0033c0:12
#003380:00000022000000000000000000000000
#003361:00000012000000000000000000000000
#003321:0000002200000000
#004321:12
#004361:00000022000000000000000000000000
#004380:00000012000000000000000000000000
#0043c0:0000002200000000
#005380:13
#0053b0:0023000000000000
#0053b0:00130000
#005380:0000002300000000
#006350:13
#006320:0023000000000000
#006320:00130000
#006350:0000002300000000
#0073a0:0000000012220000
#0073c0:0000000000001222
#008370:00001300000033000000002300000000
#0083b0:00333300
#008390:00000000000000330000000000000000
#008321:00001300000033000000002300000000
#008361:00333300
#008341:00000000000000330000000000000000
#009361:00000012000000000000000000000000
#009321:0000002200000000
#009380:00000016000022000000000000000000
#010380:00000012000000000000000000000000
#0103c0:0000002200000000
#010321:00000016000000000000000000000000
#010361:0000002200000000
#011321:0000000000001600005200000000000000000000000000000000000000000000
#011361:0000002200000000
#011380:00000016000022000000000000000000
#0113c0:0000000000000000005200000000000000000000000000000000000000000000
#012320:00000016000022000000000000000000
#012360:0000000000000000005200000000000000000000000000000000000000000000
#012381:0000000000001600005200000000000000000000000000000000000000000000
#0123c1:0000002200000000
#013361:00000012000000000000000000000000
#013321:0000002200000000
#013380:00000016000000000000000000000000
#0133c0:0000002200000000
#014380:00000012000000000000000000000000
#0143c0:0000002200000000
#014321:00000016000022000000000000000000
#015321:00000016000022000000000000000000
#015361:0000000000000000005200000000000000000000000000000000000000000000
#015380:0000000000001600005200000000000000000000000000000000000000000000
#0153c0:0000002200000000
#017320:12
#017360:0022000000000000
#017320:00120000
#017360:0000002200000000
#017380:0000000000120022
#0173c0:00000032
#019380:12
#0193c0:0022000000000000
#019380:00120000
#0193c0:0000002200000000
#019320:0000000000120022
#019360:00000032
#021320:0013
#021360:00000000000000000000002300000000
#022370:13
#0223b0:0023000000000000
#022370:00000000001300000000000000000000
#0223b0:0023
#022350:00000012
#022390:0000000000000032
#023350:32320000
#023390:0032002200000000
#022391:00000012
#022351:0000000000000032
#023391:32320000
#023351:0032002200000000
#025371:13
#0253b1:0023000000000000
#0253b1:00130000
#025371:0000002300000000
#025351:0000000000000013
#026321:33
#026351:0023000000000000
#025380:0000000000000013
#0263b0:33
#026380:0023000000000000
#026360:0000000000000014
#027320:24
#0263b1:0000000000000013
#027371:33330000
#0273b1:0033002300000000
#027360:0014000000000000
#027320:00240000
#027360:0000001400000000
#027320:0024
#027320:0000000000000014
#028360:34
#028320:0024000000000000
#0283b0:0013
#028370:0000000000230000
#028360:00000013
#028320:0000000000000023
#0293b0:0013
#029370:00000000000000000000002300000000
#030360:13
#030320:0023000000000000
#030360:00000000001300000000000000000000
#030320:0023
#031320:0000000000000013
#032370:0022000000000000
#034360:00000000000000000000000000000014
#0353a0:0024000000000000
#035360:00000000000000140000000000000000
#035320:0000000000240000
#035360:00000000000000000000000000000014
#0363a0:0024000000000000
#0363a0:0014
#036360:0000000000240000
#036360:00000014
#036320:0000000000000024
#0393b0:13
#039370:0023000000000000
#0393b0:0000001300000000
#039370:0023
#0403b0:13
#040380:0023000000000000
#040320:00130000
#040350:0000002300000000
#042320:12
#042360:00000022000000000000000000000000
#0423c0:0000001200000000
#042380:0000000000220000
#043320:12
#043360:0022000000000000
#043380:00000000001200000000000000000000
#0433c0:00000000000000220000000000000000
#0443c0:12
#044380:00000022000000000000000000000000
#044320:0000001200000000
#044360:0000000000220000
#045380:12
#0453c0:00000022000000000000000000000000
#045360:0000001200000000
#045320:00000000000000000022000000000000
#046320:13
#046350:0023000000000000
#046350:00000013000000000000000000000000
#046320:0000002300000000
#0473b0:13
#047380:0023000000000000
#047380:00000000001300000000000000000000
#0473b0:0023
#049340:1500005500000055000000000000000000000000000000000000000000000000
#049320:0055000000550000250000000000000000000000000000000000000000000000
#049330:00555555000000000000000000000000
#049391:1500005500000055000000000000000000000000000000000000000000000000
#049371:0055000000550000250000000000000000000000000000000000000000000000
#049381:00555555000000000000000000000000
#049321:0000001400003400
#0493a1:00000000000000000034000000000000
#049361:0000000000000054
#050321:24
#0493a0:0000001400002400
#049320:00000000000000000034000000000000
#051361:13
#051321:0023000000000000
#051351:00000000001300002300000000000000
#051321:0000000000000000000000000053000000000000000000000000000000000000
#052371:13
#0523b1:0023000000000000
#052381:00000000001300002300000000000000
#0523b1:0000000000000000000000000053000000000000000000000000000000000000
#053321:13
#053351:0023000000000000
#053321:00130000
#053351:0000002300000000
#0533b1:0013
#053381:0000000000230000
#0533b1:00000013
#053381:0000000000000023
#054351:00000000001300000000000000000000
#054321:0023
#054380:00000000001300000000000000000000
#0543b0:0023
#055360:1522000000000000
#055340:00000015002200000000000000000000
#055320:0000001522000000
#056350:15005400005300000000000000000000000000000000000000000000000000000000000000000000000000000000000000000000000000000000000000000000
#056340:00540000000000000000000000000000000000000000000000000000000000000000000000000000000000000000000000000000000000000000000000000000
#056360:00000054530053000000000000000000000000000000000000000000000000000000000000000000000000000000000000000000000000000000000000000000
#056370:00000000000000530000000000000000000000000000000000000000000000000000000000000000000000000000000000000000000000000000000000000000
#056380:0022000000000000
#056370:00000000000000000000000015005400005300000000000000000000000000000000000000000000000000000000000000000000000000000000000000000000
#056360:00000000000000000000000000540000000000000000000000000000000000000000000000000000000000000000000000000000000000000000000000000000
#056380:00000000000000000000000000000054530053000000000000000000000000000000000000000000000000000000000000000000000000000000000000000000
#056390:00000000000000000000000000000000000000530000000000000000000000000000000000000000000000000000000000000000000000000000000000000000
#0563a0:00000000002200000000000000000000
#056390:00000000000000000000000000000000000000000000000015005400005300000000000000000000000000000000000000000000000000000000000000000000
#056380:00000000000000000000000000000000000000000000000000540000000000000000000000000000000000000000000000000000000000000000000000000000
#0563a0:00000000000000000000000000000000000000000000000000000054530053000000000000000000000000000000000000000000000000000000000000000000
#0563b0:00000000000000000000000000000000000000000000000000000000000000530000000000000000000000000000000000000000000000000000000000000000
#0563c0:0022
#058380:16260000
#058321:16260000
#058381:0056000000000000
#0593a1:0000001400000000
#059361:0024
#059321:0000000000192600
#059380:00000016
#059350:0000000000000029
#060320:0000001400000000
#060360:0024
#061360:14240000000000000000000000000000
#061321:00142400000000000000000000000000
#0613a0:00001424000000000000000000000000
#061361:00000014240000000000000000000000
#061361:00000000000000001424000000000000
#0613a0:00000000000000000014240000000000
#061321:00000000000000000000142400000000
#061360:00000000000000000000001424000000
#062360:14
#062320:0024000000000000
#062320:00000000001300002300000000000000
#062350:0000000000000000000000000053000000000000000000000000000000000000
#0623b1:00000000001300002300000000000000
#062381:0000000000000000000000000053000000000000000000000000000000000000
#063361:13
#063321:0023000000000000
#063371:00000013000000000000000000000000
#0633b1:00000000002300000000000000000000
#0633b1:0000001300000000
#063371:0023
#063360:0000001300000000
#063320:0023
#064360:0000000000140000
#064340:00000033
#064320:0000000000000022
#065380:0016220000000000
#065321:00160000
#065361:0000002200000000
#065380:0000001600000000
#0653c0:0022
#065321:0000000016220000
#065361:00000012
#065321:0000000000000026
#065380:0000000000001226
#067380:16
#0673c0:0022000000000000
#067321:0016220000000000
#067380:00160000
#0673c0:0000002200000000
#067321:0000001600000000
#067361:0022
#067380:0000000016220000
#067320:00000016
#067360:0000000000000022
#067381:0000000000001622
#068321:00140000
#068381:0000003400340000
#068361:00000000000000540054005400000000
#068341:00003424
#0683a0:00140000
#068340:0000003400340000
#068360:000000000000000000000000000000000000000000000000000000000000000000000000000000000000000000000000000000000000000000000000000000000000000000000000000000000000000000000000005400000000000000000000000000000000000000000000005400000000000000000000000000000000000000000000005400000000000000000000000000000000000000000000000000000000000000000000000000000000000000000000000000000000000000000000
#068380:00003424
#069360:0000000000001222
#069381:0000000000001222
#070361:00000012000000000000000000000000
#070321:0000002200000000
#070380:00000016000022000000000000000000
#071380:00000012000000000000000000000000
#0713c0:0000002200000000
#071321:00000016000000000000000000000000
#071361:0000002200000000
#072321:0000000000001600005200000000000000000000000000000000000000000000
#072361:0000002200000000
#072380:00000016000022000000000000000000
#0723c0:0000000000000000005200000000000000000000000000000000000000000000
