This file was generated by Ched 2.7.0.0.
#TITLE ""
#ARTIST ""
#DESIGNER ""
#DIFFICULTY 0
#PLAYLEVEL
#SONGID ""
#WAVE ""
#WAVEOFFSET 0
#JACKET ""
#REQUEST "ticks_per_beat 480"
#00002: 4
#BPM01: 130
#00008: 01
#TIL00: ""
#HISPEED 00
#MEASUREHS 00
#0091a:2414
#00914:00140014
#00910:41
#0111a:14
#01114:00140000
#01118:0014
#01112:00000014
#0121a:14
#01214:00140000
#01218:0014
#0261a:14140000
#01912:00000014
#0191a:14
#01914:00140000
#01918:0014
#0171a:24141400
#01710:41
#04812:14
#04818:00140000
#04814:0014
#0481a:00000014
#05316:00140014
#05312:0014
#0531a:14
#0521a:1414
#05214:00140000
#05212:0014
#05210:41
#0541a:1414
#05416:00140000
#05412:0014
#05918:00140000
#0591a:00000014
#05914:0014
#05912:26
#06314:00140000
#06318:14
#0631a:0014
#06312:00000014
#0441a:14
#04412:00000014
#04414:00140000
#04418:0014
#05614:00000014
#05612:14
#05613:00340000
#05718:1616
#05712:00160016
#06012:1414
#06018:00140000
#0601a:0014
#06112:14
#06116:00140014
#0611a:0014
#01012:00140014
#01018:1414
#01312:1414
#01318:00140014
#01512:14
#0151a:00000014
#01518:00140000
#01514:0014
#01414:1414
#0141a:00140014
#01612:14
#01618:00140000
#01614:0014
#01812:14141400
#02018:0014
#02014:00140000
#0201a:14
#02114:14140000
#02118:00001414
#02212:1414
#0221a:00140000
#02318:14140000
#02314:00001414
#0241a:1414
#02412:00140000
#02512:24140000
#02510:41
#0291a:14140000
#02914:00001414
#03018:14
#03012:00140000
#0301a:0014
#03112:14140000
#03118:00001414
#03214:14
#0321a:00140000
#03212:0014
#03912:14
#0391a:00140000
#03914:0014
#03918:00000014
#03412:14
#03413:00340000
#03414:0034
#0331a:14
#03319:00340000
#03318:0034
#03310:41
#03714:14
#03713:00340000
#03712:0034
#03818:14
#03819:00340000
#0381a:0034
#04012:16
#0451a:14
#04518:00140000
#04912:14
#04915:0000001400000000
#05114:00140000
#05118:2614
#05112:00000014
#0511f:21
#05518:00000014
#0551a:14
#05519:00340000
#05818:16
#06212:1414
#06216:00140000
#0621a:0014
#06714:14
#06718:00140000
#06712:0014
#0671a:00000014
#07212:14
#0721a:00140000
#07018:00140000
#07012:14
#0711a:14
#07114:00140000
#07313:14
#07319:14
#07318:0000000026000026
#07312:00000000000000000000002600000000
#0031a:14
#00318:0014
#00314:14
#00312:0014
#0041a:14
#00414:14
#00418:0014
#00412:0014
#0351a:14
#03512:00140000
#03518:0014
#03514:00000014
#0361a:14
#03612:00140000
#03618:0014
#02712:14
#02718:00140000
#02714:0014
#0271a:00000014
#02812:14
#02818:00140000
#02814:0014
#06418:14
#06414:00140000
#0641a:0014
#06412:00000014
#06410:41
#06518:14
#06514:00140000
#0651a:0014
#06512:00000014
#0421f:11
#06913:24
#06919:24
#05018:26
#05012:0026
#00519:00340000
#00518:0034
#00613:00340000
#00612:0034
#00719:00340000
#0071a:0034
#03452:64
#0335a:64
#03754:54
#03858:64
#04052:56
#0455a:54
#04558:00240000
#04952:54
#04955:0000002400000000
#05158:16
#05652:64
#0555a:64
#05952:16
#05858:16
#001380:1424
#002340:1424
#0053a0:14
#005390:00340000
#005380:00003424
#006340:14
#006330:00340000
#006320:00003424
#007380:14
#007390:00340000
#0073a0:00003424
#008350:1636360036002600
#025320:00001424
#0263a0:00001424
#0333a0:14
#033390:00340000
#033380:00003424
#034320:14
#034330:00340000
#034340:00003424
#037340:14
#037330:00340000
#037320:00003424
#038380:14
#038390:00340000
#0383a0:00003424
#040320:16
#040350:0000003600363626
#0423a0:14
#042380:0024
#043340:14
#043320:0024
#0453a0:1424
#045380:00540000
#046320:14
#046340:0024
#047380:14
#0473a0:0024
#049320:14000024
#049350:0000003400000000
#0553a0:14
#055390:00340000
#055380:0024
#056320:14
#056330:00340000
#056340:0024
#066380:1424
#0663a0:00340000
#068340:1424
#068320:00340000
#069390:14000024
#069331:14000024
#070321:00001424
#0713a1:00001424
#072321:00001424
