This file was generated by Ched 2.7.0.0.
#TITLE ""
#ARTIST ""
#DESIGNER ""
#DIFFICULTY 0
#PLAYLEVEL
#SONGID ""
#WAVE ""
#WAVEOFFSET 0
#JACKET ""
#REQUEST "ticks_per_beat 480"
#00002: 4
#BPM01: 158
#00008: 01
#TIL00: ""
#HISPEED 00
#MEASUREHS 00
#00018:14
#00114:14
#00218:14
#00314:14
#0041a:14
#00512:14
#0061a:14
#00712:14
#00914:14
#01018:14
#01112:14
#0121a:14
#01314:14
#01418:14
#01512:14
#01618:14
#01610:41
#01714:14
#02014:14
#02118:14
#0241a:14
#02410:41
#0251a:14
#02614:14
#02714:14
#02818:14
#02918:14
#03012:14
#03112:14
#0321a:14
#03210:41
#03314:14
#03612:14
#03718:14
#04812:0016
#04818:26
#0481f:21
#04918:16
#04912:0016
#04910:41
#05218:1616
#05312:1616
#05418:16
#05412:0016
#05618:0016
#05612:26
#05712:16
#05718:0016
#06012:1616
#06118:1616
#06212:16
#06218:0016
#06312:16
#06418:16
#06412:0016
#06518:16
#06512:0016
#0401f:11
#0081a:24
#00812:24
#00810:41
#06618:26
#03910:00410000
#0183a0:14
#0193a0:24
#022320:14
#023320:24
#034380:14
#035380:24
#038340:14
#039340:24
#0403a0:14
#041380:24
#042320:14
#043340:24
#044380:14
#0453a0:24
#046340:14
#047320:24
#050380:1626
#051320:1626
#055380:1626
#058320:1626
#059380:1626
#066380:1636360026000000
