This file was generated by Ched 2.7.0.0.
#TITLE ""
#ARTIST ""
#DESIGNER ""
#DIFFICULTY 0
#PLAYLEVEL
#SONGID ""
#WAVE ""
#WAVEOFFSET 0
#JACKET ""
#REQUEST "ticks_per_beat 480"
#00002: 4
#BPM01: 158
#00008: 01
#TIL00: ""
#HISPEED 00
#MEASUREHS 00
#0001b:1313000000000013
#00018:0000000000130000
#00012:1313000000000013
#0011b:0013000000000000
#00112:0013000000000000
#0031b:0013001300130000
#00318:00000013
#00315:0000000000000013
#00312:0013000000000000
#00412:13131313
#0041b:1313000000000013
#00418:0000000000130000
#0051b:0013000013000000
#00512:13131313
#00518:0000000000130000
#00515:0000000000000013
#00712:1300131323000000
#0071b:0013131323000000
#0081b:2323000000230013
#00818:00131300
#00815:0000001300001300
#00812:2323000000130023
#00810:41
#00918:13000000000013000000001300001300
#0091b:0023000013000000
#00915:00000000000000130000130000000000
#00912:0013000000001300
#0101b:2323000013000013
#01015:0000130000001323
#01018:0000001300230000
#01012:2323000000130000
#01115:00000000130023000000000000130000
#01118:1323001300001313
#01112:0013000000130000
#0161b:1300000013000013
#01612:1300130000000013
#01616:0013
#01614:0000001300000000
#01610:41
#01718:13130000
#01715:0013000000000000
#0171b:0000001300000013
#01712:0000001300000013
#0181b:1300001313000013
#01815:0013000000001300
#01818:0000130000130000
#01812:1300001313000013
#0191b:1300001300000013
#01915:0013000000000000
#01918:00130000
#01912:1300001300130013
#01919:00000013
#0201b:1313
#02017:0000001300000000
#02012:1300001300000013
#02016:0013
#02118:13130013
#02115:0013000000130013
#02112:0000001300001300
#0211b:0013001300130013
#02218:0013001300000000
#0221b:0000130000001313
#02215:0013
#02212:0000000000130000
#02216:0000000000001313
#0241b:1300130000000013
#02418:00001313
#02415:0000000000130000
#02412:1300130000000013
#02410:41
#02512:0013000000001300
#02515:0000130000130000
#02518:00000000000013000000001300001300
#0251b:0013
#0261b:1300130000000013
#02612:0000000013000013
#02615:0000000000130000
#02618:0000001300001300
#0271b:0013000000131300
#02718:00131300
#02715:0000001300000000
#02716:00000000000000000000001300000000
#02712:0000000000000013
#02817:0000001300000013
#0281b:1313
#02818:0000000000130000
#02815:00000013
#02812:0000000000000013
#02816:1313
#02916:0013001313000000
#02917:00130000
#02918:0000000000130000
#02915:00000013
#02912:0000130000000013
#0291b:00000000000000130000000000000000
#03018:0000130000001313
#0301b:0000001300130000
#03017:0013
#03015:00001300000000000000000000130000
#03012:0000000013000013
#03016:0000000000130000
#03115:0013000013000000
#0311b:00001323
#03118:0000001300000000
#03112:00000023
#0401b:00130013
#04018:2300000023000013
#04012:1300000013000013
#04015:0000230000132300
#0401f:11
#0411b:0013000000130000
#04118:2300001323000013
#04115:0013230000132300
#04112:0000001300000013
#04219:0013000000000000
#04217:00131300
#04212:00131300
#0421b:2300000000001313
#04216:13
#04214:0013000000000000
#04617:00001300000000001300000000000013
#0461b:00130013
#04619:0000001300130000
#04616:00130013
#04612:0013
#04717:13
#0471b:0000000000232300
#04712:0000000000232300
#0481b:0000001300000013
#04819:00001313
#04817:0000000000130000
#04812:0000000000130013
#04818:23
#04815:23
#0481f:21
#04912:0000001300000013
#04915:0013
#04918:0000000000130000
#0491b:00000013
#04917:0000000000000013
#04910:41
#0501b:0013000000000013
#05016:0013000000130013
#05012:00000013
#05017:0000001300001300
#0511b:1300000000130000
#05119:00000013
#05118:0000000000000013
#05116:13
#05117:0013
#05115:0000000000000013
#05112:0000000000130000
#05114:00000013
#0521b:1300130000001323
#05212:13130013
#05215:0000001300000000
#05218:0000001300000000
#05317:0000000000000013
#05312:0000230000000013
#0541b:13
#05412:0000001400000023
#05414:0014
#05416:1300000000140000
#05418:00000014
#0541a:0000000000000014
#05912:1300000000130000
#05919:00000013
#0591b:0000000000000013
#05917:1300000000130000
#05916:0000000013000013
#05914:00000013
#06017:0013130000000000
#0601b:0013
#06015:00000013
#06012:0000000000000013
#06018:0000000000130000
#0611b:13
#06112:0000130000001313
#06116:13
#06117:0000000000001313
#0621b:0000130000130000
#06218:00001313
#06215:0000000000000013
#06212:00001313
#06318:13130000
#0631b:0013000000001313
#06312:1300130000001313
#06418:0013000013130023
#06415:1300131300002300
#06412:0013000000130023
#0641b:0000001300002300
#06519:00000013
#06517:0000000000000013
#06515:0013000000000000
#06518:0000001300000000
#06516:0000000000130000
#0651b:0013130000130000
#06512:0000001313000013
#06514:00000013
#00212:1313000000000013
#00215:0000000000130000
#0021b:1313000000000013
#00612:13131313
#0061b:1313000000000013
#00618:0000000000130000
#01315:13000000000013000000001300001300
#01312:0023000013000000
#01318:00000000000000130000130000000000
#0131b:0013000000001300
#01215:00131300
#01218:0000001300001300
#01212:2323000000230013
#0121b:2323000000130023
#01515:1323001300001313
#01518:00000000130023000000000000130000
#0151b:0013000000130000
#01418:0000130000001323
#01415:0000001300230000
#01412:2323000013000013
#0141b:2323000000130000
#02312:0000130013131300
#02317:0013
#02316:0000000000000013
#0231b:0000000000232323
#03212:1300000013000013
#0321b:1300130000000013
#03217:0013
#03219:0000001300000000
#03210:41
#03315:13130000
#03318:0013000000000000
#03312:0000001300000013
#0331b:0000001300000013
#03612:1313
#03616:0000001300000000
#0361b:1300001300000013
#03617:0013
#03715:13130013
#03718:0013000000130013
#0371b:0000001300001300
#03712:0013001300130013
#03815:0013001300000000
#03812:0000130000001313
#03818:0013
#0381b:0000000000130000
#03817:0000000000001313
#0391b:00130000
#03918:00000000000000130000000000000000
#03915:0013
#03912:0000000000242400
#0391a:0000000000242400
#03910:00410000
#04318:0000001300130000
#04312:00230023
#0431b:00232323
#04315:0023
#04412:00130013
#04415:2300000023000013
#0441b:1300000013130013
#04418:00230023
#04512:2313000023130000
#04515:0000001300000013
#04518:0013000000130000
#0451b:0000231300002313
#05516:0013000000002400
#0551a:0000000000240000
#05512:0000000000000024
#0551b:0023000000000000
#05612:0000001300000013
#05614:00001313
#05616:0000000000130000
#0561b:0000000000130013
#05615:23
#05618:23
#0571b:0000001300000013
#05718:0013
#05715:0000000000130000
#05712:00000013
#05716:0000000000000013
#05812:0013000000000013
#05817:0013000000130013
#0581b:00000013
#05816:0000001300001300
#03412:1300001313000013
#03418:0013000000001300
#03415:0000130000130000
#0341b:1300001313000013
#03512:1300001300000013
#03518:0013000000000000
#03515:00130000
#0351b:1300001300130013
#03514:00000013
#06615:2222220000000000
#06614:0022
#06619:2222220000000000
#0661a:0022
#0095b:0013
#00952:00000013
#01158:0000005300000000
#01352:0013
#0135b:00000013
#0165b:53
#0185b:13
#01852:0013
#0195b:1300006300000000
#0215b:0000001300000000
#02152:0000001300000000
#02155:0000000000000053
#0225b:0000000000000053
#0245b:0000000000000053
#02652:0000000000000053
#03252:63
#0375b:0000001300000000
#03758:0000000000000063
#03752:0000001300000000
#03852:0000000000000063
#02856:53
#02857:0000000000000053
#03058:0000000000000053
#03155:0053000000000000
#03152:0000001300000000
#0315b:0013
#04252:0053
#0425b:0000000000000013
#04555:0000000000000053
#04656:00000053
#04855:53
#0485b:0000000000000053
#04852:0000000000000053
#04858:13
#05056:0053000000000000
#0505b:0053000000000000
#05057:0000005300000000
#05156:53
#05158:0000000000000053
#05155:0000000000000063
#0525b:2300630000000053
#05252:23530000
#05255:0000002300000000
#05258:0000002300000000
#05556:0053000000000000
#05557:0000001300000000
#05552:0000001300000000
#0555b:0053000000000000
#05652:0000000000000063
#0565b:0000000000000063
#05658:63
#05655:13
#05852:0063000000000000
#05857:0063000000000000
#05856:0000006300000000
#0575b:0000000000000063
#05957:63
#05956:0000000000000053
#0615b:53
#06157:00130000
#06152:0000000000000053
#06256:00130000
#06352:13
#06358:00130000
#06458:0013000000130000
#06455:0000001300000000
#06555:0013000000000000
#06558:0000001300000000
#0665a:0012
#06654:0012
#03452:13
#0345b:0013
#03552:1300005300000000
#05352:00530000
#04952:0000000000000053
#05452:0000000000000053
#01555:0000006300000000
#003320:0000001300230000
#011380:0000001300000000
#0113b0:0000000000230000
#015350:0000001300000000
#015320:0000000000230000
#0163b0:13
#016370:00230000
#0193b0:0000001300000000
#019370:0000000000230000
#021350:0000000000000013
#022320:0023000000000000
#0223b0:0000000000000013
#023370:00230000
#0243b0:0000000000000013
#025370:0023000000000000
#026350:13230000
#026320:0000000000000013
#027360:0023000000000000
#028360:13
#028320:0000002300000000
#028370:0000000000000013
#0293b0:0023000000000000
#030380:0000000000000013
#0313b0:0023000000000000
#031351:0013000000000000
#031321:0000002300000000
#032321:13
#032361:00230000
#035321:0000001300000000
#035361:0000000000230000
#037381:0000000000000013
#0383b1:0023000000000000
#038321:0000000000000013
#039361:00230000
#042321:0013
#042361:0000000000000023
#045351:0000000000000013
#046321:0023000000000000
#046361:00000013
#047321:23
#048351:13
#048321:0000002300000000
#0483b1:0000000000000013
#049381:00230000
#048320:0000000000000013
#049350:00230000
#049320:0000000000000013
#050360:0033000000000000
#050320:0000002300000000
#0503b1:0013000000230000
#050371:0000003300000000
#051361:13
#051321:0023
#051381:0000000000000013
#0523b1:53
#052381:0023000000000000
#051350:0000000000000013
#052320:53
#052350:0023000000000000
#052320:00132300
#052350:0000005300000000
#0523b1:00132300
#052381:0000005300000000
#0523b1:0000000000000013
#053371:0023000000000000
#052320:0000000000000013
#053320:0023000000000000
#053320:00130000
#053360:0023
#0533b1:00132300
#054321:0000000000000013
#055361:0033000000000000
#055321:0000002300000000
#0553b0:0013000000000000
#055370:0000002300000000
#056380:13
#0563b0:0000002300000000
#056320:0000000000000013
#057350:00230000
#0563b1:0000000000000013
#057381:00230000
#0573b1:0000000000000013
#058371:0033000000000000
#0583b1:0000002300000000
#058320:0013000000230000
#058360:0000003300000000
#059370:13
#0593b0:0023
#059360:0000000000000013
#060320:00230000
#0613b0:13
#061370:00230000
#061320:0000000000000013
#062360:00230000
