This file was generated by Ched 2.7.0.0.
#TITLE ""
#ARTIST ""
#DESIGNER ""
#DIFFICULTY 0
#PLAYLEVEL
#SONGID ""
#WAVE ""
#WAVEOFFSET 0
#JACKET ""
#REQUEST "ticks_per_beat 480"
#00002: 4
#BPM01: 158
#00008: 01
#TIL00: ""
#HISPEED 00
#MEASUREHS 00
#00018:1300000000130000
#0001b:0000000000000013
#00015:0013000000000000
#00012:0000000000000013
#0011b:0013000000000000
#00112:0013000000000000
#0031b:0013000000130000
#00315:0000001300001300
#00318:0000000000000013
#00312:0013000000000000
#00412:1300000000000013
#00418:0013000000000013
#00415:0000000000130000
#0051b:0013000000000000
#00515:0013000000000000
#00715:0000001323000000
#0071b:0000001323000000
#00718:0013000000000000
#00712:0013000000000000
#0081b:2323000000000013
#00812:2323000000000023
#00818:0000000000230000
#00810:41
#00918:00000000000013000000001300000000
#0091b:0023000013000000
#00915:00000000000000130000130000000000
#00912:0013000000001300
#0101b:2323000000000013
#01012:2323000000130000
#01018:0000000000230000
#01015:0000000000000023
#0161b:1313
#01615:0000001300000000
#01612:0000000000000013
#01610:41
#01718:13130000
#01715:0013000000000000
#01712:0000001300000013
#01815:0013000000001300
#01818:0000130000130000
#01812:0000000013000013
#0181b:1300001300000000
#01915:0013000000000000
#01918:00130000
#0191b:1300001300000000
#0201b:13
#02018:0000001313000000
#02012:0000001313000013
#02015:13
#02118:13130013
#02115:0013000000000013
#02112:0000001300000000
#0211b:0000000000130000
#0221b:00130013
#02215:0000001300000013
#02218:0013
#02212:0000000000130000
#0241b:00130000
#02418:00001313
#02415:0000000000130000
#02412:1300000000000013
#02410:41
#02518:0000130000000013
#02515:00000000000013000000003300000000
#0251b:0013
#02612:0013
#02615:0000000000130000
#02618:0000001300001300
#0261b:0000000000000013
#02715:0000130000000013
#02718:00000000000013000000003300000000
#02712:0013
#02818:1300000000130013
#02815:00001313
#02918:0000001313001300
#02915:00000000000000130000130000000000
#02912:0000130000000013
#03015:0000130000001313
#0301b:0000001300130000
#03018:00001300000000000000000000130000
#03012:0013
#03112:0013000000002300
#03118:0013
#0311b:00000023
#0401b:00130013
#04018:1313
#04012:0000001300000013
#04015:0013000000130000
#0401f:11
#0411b:0013000000130000
#04118:0000001300000013
#04115:0013000000130000
#04112:0000001300000013
#04218:0013000000001300
#04215:1300000000000013
#04212:0013
#0421b:00130000
#04618:0000001300130000
#0461b:0013
#04615:00130013
#04612:0013000000000000
#04812:2400001300000013
#04818:0013
#04815:0000000000130000
#0481b:00000013
#0481a:24
#0481f:21
#0491b:0000001300001300
#04915:0013
#04918:0000000000130000
#04912:0000000000000013
#04910:41
#05012:0000001300000000
#05016:0013000000000000
#0501b:00000013
#05015:0000000000000013
#05118:00000013
#0511b:13
#05115:0000000000130013
#0521b:0000130000001323
#05212:13000013
#05218:0000001300000000
#0531b:0000000000000013
#05312:0000230000000013
#0541b:13000013
#05412:1300001300000024
#05418:0013
#05415:0000000000130000
#0601b:0013
#06012:00000013
#06015:0013
#06018:00000013
#06115:13
#06112:0000000000001313
#06118:0000000000001313
#0611b:13
#06218:0013
#0621b:00000013
#06212:0013
#06215:00000013
#06318:00140000
#0631b:0000000000001313
#06312:1400000000001313
#06418:0013000000130023
#06415:0000001300002300
#06412:0013000000000000
#0641b:0000001300000000
#06518:0000001300001300
#06515:0013000000130013
#0651b:0013000000000000
#06512:0000001300000000
#01112:0013000000000000
#0111b:0000001300000000
#01115:0000001300000000
#01118:0023000000000000
#04315:0000001300130000
#0431b:00230023
#04318:0023
#05515:0014000000002300
#0551a:0000000000230000
#05518:0000000000000023
#05918:0000000000130000
#05915:00000013
#0591b:0000000000000013
#05912:13
#00215:1300000000130000
#00212:0000000000000013
#00218:0013000000000000
#0021b:0000000000000013
#0061b:1300000000000013
#00615:0013000000000013
#00618:0000000000130000
#01212:2323000000000013
#0121b:2323000000000023
#01215:0000000000230000
#01315:00000000000013000000001300000000
#01312:0023000013000000
#01318:00000000000000130000130000000000
#0131b:0013000000001300
#01412:2323000000000013
#0141b:2323000000130000
#01415:0000000000230000
#01418:0000000000000023
#0151b:0013000000000000
#01512:0000001300000000
#01518:0000001300000000
#01515:0023000000000000
#03212:1313
#03218:0000001300000000
#0321b:0000000000000013
#03210:41
#03315:13130000
#03318:0013000000000000
#0331b:0000001300000013
#03418:0013000000001300
#03415:0000130000130000
#0341b:0000000013000013
#03412:1300001300000000
#03518:0013000000000000
#03515:00130000
#03512:1300001300000000
#03612:13
#03615:0000001313000000
#0361b:0000001313000013
#03618:13
#03715:13130013
#03718:0013000000000013
#0371b:0000001300000000
#03712:0000000000130000
#03812:00130013
#03818:0000001300000013
#03815:0013
#0381b:0000000000130000
#04412:00130013
#04415:1313
#0441b:0000001300000013
#04418:0013000000130000
#04512:0013000000130000
#04515:0000001300000013
#04518:0013000000130000
#0451b:0000001300000013
#0561b:0000001300000013
#05615:0013
#05618:0000000000130000
#05612:24000013
#0561a:24
#05712:0000001300001300
#05718:0013
#05715:0000000000130000
#0571b:0000000000000013
#0581b:0000001300000000
#05817:0013000000000000
#05812:00000013
#05818:0000000000000013
#0471a:0000000000242400
#04712:0000000000242400
#02318:0000000000230023
#02315:00000023
#03912:0000000000242400
#0391a:0000000000242400
#03910:00410000
#06618:23230000
#06615:0023000000000000
#06612:0023
#0661b:0023
#0165b:53
#0195b:0000006300000000
#02152:0000001300000000
#02155:0000000000000053
#02255:0000000000000053
#02452:0000000000000063
#0265b:0000000000000063
#02858:5300000000000053
#03055:0000000000000063
#03152:0063000000000000
#03158:0013
#03155:0000001300000000
#04255:0000000000000013
#04655:00000053
#04852:1400000000000053
#0485a:14
#05056:0053000000000000
#05052:0000005300000000
#0515b:53
#05155:0000000000000063
#05252:23
#0525b:00630000
#05258:0000002300000000
#05555:0054000000000000
#05552:0000001400000000
#0595b:0000000000000053
#05952:63
#06155:53
#06152:0000130000000053
#06158:0000130000000053
#0615b:53
#0625b:00130000
#06255:00130000
#06352:14
#06358:00140000
#04952:0000000000000053
#05452:0000000000000054
#0115b:0000005300000000
#01155:0000005300000000
#01552:0000006300000000
#01558:0000006300000000
#03252:63
#0375b:0000001300000000
#03758:0000000000000063
#03858:0000000000000063
#03552:0000005300000000
#0585b:0000006300000000
#05857:0063000000000000
#0565b:0000000000000063
#05652:14
#0565a:14
#0575b:0000000000000063
#0665b:0013
#06652:0013
#0113b0:0000001300000000
#011380:00000023
#011351:0000001300000000
#011321:00000023
#015321:0000001300000000
#015351:00000023
#015380:0000001300000000
#0153b0:00000023
#0163b0:13
#016380:00230000
#0193b0:0000001300000000
#019380:0000000000230000
#021350:0000000000000013
#022320:0023000000000000
#022350:0000000000000013
#023320:00230000
#024320:0000000000000013
#025350:0023000000000000
#025350:00000000000000000000133300000000
#025320:00000023
#026350:13230000
#0263b0:0000000000000013
#027380:0023000000000000
#027380:00000000000000000000133300000000
#0273b0:00000023
#028380:13
#0283b0:0000002300000000
#028380:0000000000000013
#0293b0:0023000000000000
#030350:0000000000000013
#031320:0033000000000000
#031350:0000002300000000
#032320:13
#032350:00230000
#035320:0000001300000000
#035350:0000000000230000
#037380:0000000000000013
#0383b0:0023000000000000
#038380:0000000000000013
#0393b0:00230000
#046350:00000013
#047320:23
#048320:0000000000000013
#049350:00230000
#049320:0000000000000013
#050360:0033000000230000
#050320:0000003300000000
#0513b0:13
#051380:0023
#051350:0000000000000013
#052320:53
#052350:0023000000000000
#0523b0:00132300
#052380:0000005300000000
#0523b0:0000000000000013
#053380:0023000000000000
#052321:0000000000000013
#053351:0023000000000000
#053321:00130000
#053351:0023
#0533b0:00130000
#053380:0023
#054320:0000000000000014
#055350:0034000000000000
#055320:0000002400000000
#0563b0:0000000000000013
#057380:00230000
#0573b0:0000000000000013
#058370:0033000000230000
#0583b0:0000003300000000
#059320:13
#059350:0023
#0593b0:0000000000000013
#060380:0033230000000000
#061350:13
#061320:00230000
#0613b1:13
#061381:00230000
#061381:0000000000000013
#0623b1:00230000
#061320:0000000000000013
#062350:00230000
