This file was generated by Ched 2.7.0.0.
#TITLE ""
#ARTIST ""
#DESIGNER ""
#DIFFICULTY 0
#PLAYLEVEL
#SONGID ""
#WAVE ""
#WAVEOFFSET 0
#JACKET ""
#REQUEST "ticks_per_beat 480"
#00002: 4
#BPM01: 158
#00008: 01
#TIL00: ""
#HISPEED 00
#MEASUREHS 00
#00018:1300000000130000
#0001b:0013000000000013
#00012:0013000000000013
#00015:1300000000130000
#0011b:0013000000000000
#00112:0013000000000000
#0031b:0013001300130000
#00319:00000013
#00317:00000000000000000000001300001300
#00312:0013001300000000
#00315:00000000000000000000000000130000
#00313:00000000000000000000000000000013
#00412:13131313
#0041b:1313000000000013
#00418:00000000130000130000130000000000
#0051b:0013000013001300
#00512:13131313
#00518:13000000000000130000130000001300
#00515:0000001300000013
#00712:1300131323000000
#0071b:0013131323000000
#00718:13
#0081b:0023000000230013
#00818:00000000130000001300000013000013
#00815:00000000000013000000001300000000
#00812:2300000000130023
#00817:23
#00816:0023000000000000
#00810:41
#00912:0013001300000000
#00918:00000000000000001300001300001300
#0091b:0023000000130000
#00915:13000000130000130000000013000000
#0101b:23002300000000001300000013000013
#01015:00000000130000130000000013000000
#01018:0000001300230000
#01012:2323000000130000
#01016:0000000000000023
#01117:0023130000000000
#01118:0000001300001400
#01112:00000013000000001300130000000000
#01116:13000000000000000000000000140000
#01114:0000000000000014
#01115:0000002300000000
#01616:13
#0161b:0000000013000013
#01619:0000001300000000
#01615:00000000000000000000000000000013
#01614:0013000000000000
#01610:41
#0171b:1300001300001300
#01718:0013000000000013
#01715:00000000130000000000000000000013
#01712:0000001300000000
#01812:13131300
#01818:00001300001300130000000000001300
#0181b:13001313
#01815:00000000000013000000130000130013
#01912:1300001300131313
#01915:00001300001300000000000000000000
#01918:00130013
#0191b:1300001300000000
#0191a:0000000000000013
#02018:13
#02017:0000001300000000
#0201b:00131313
#02012:1300001300001313
#02016:00131300
#02015:00000000000000000000000000000013
#02118:13000013000000000000000013001300
#02115:0000130000130013
#02112:0000001300001300
#0211b:0013001300130000
#02216:0013001300001313
#02212:0000130000130000
#0221b:0000001300001313
#02219:0013
#02217:0000130000130000
#02214:0013
#0241b:1300130000000013
#02418:0013000013001300
#02415:00000000000013000000130000130000
#02412:1300130000000013
#02410:41
#02512:0013000013001300
#02515:0000130000130000
#02518:00000000000013000000001300001300
#0251b:0013
#0261b:1300130013000013
#02612:0013000013000013
#02615:00000000000000000000130000130000
#02618:0000001300001300
#02616:13
#0271b:0013000000000000
#02718:00130013
#02715:00000000000013000000001300000000
#02712:0000000013130013
#0281b:1300131300000013
#02817:0013
#02815:0000000000130000
#02818:00000013
#02816:1300000000000013
#02812:00000013000000001300000000000000
#02912:0013130014000013
#02917:00130000
#0291a:0000001400000000
#02918:0000000000130000
#02915:00000013
#02916:00000000000000140000000000000000
#0291b:00000013
#03019:00130000
#0301b:0000001300130013
#03017:0013000013000000
#03018:00000013
#03015:00000000000000000000000000130000
#03012:0013000013000013
#03016:0000001300130000
#03014:00130000
#03112:0013000013002300
#03117:0013
#0311b:0000001300002300
#0401c:00120012
#04018:2200000022000012
#04012:1200000012000012
#04016:0000220000142200
#0401f:11
#0411c:0012000000120000
#04116:0014221400142214
#04112:0000001200000012
#04118:2222
#04219:0012000000000000
#04216:1400140014001414
#0421a:0000000000001414
#04215:0012000000000000
#04212:00131400
#0421b:23
#04618:0000001300130000
#0461b:00000000000000001300000013000013
#04615:00130000
#04616:0013
#04612:0013000000001300
#04617:0013000000000000
#04717:13
#0471b:1300000000232300
#04712:0000000000232300
#0481b:2300131300000013
#04814:00001818
#04817:0000000000130000
#04812:2300000000130000
#04816:0000000000000013
#0481f:21
#04912:0013131300001313
#04915:00000000000000001300001300000000
#04918:0000000000130000
#0491b:00000013
#04917:0000001300000013
#04910:41
#0511b:1300000013130013
#05112:0000130000130013
#05115:0000000000000000000000000000000000000000000000001600000000000013
#05118:0000000000000000000000000000000000000000000000000000000000000013
#05116:13
#05117:00130000
#0521b:0000130000001323
#05212:00130013
#05218:0000130000130000000013001300130000000000000000000000000000000000
#05215:0000130000130000000013001300130000000000000000000000000000000000
#05317:0000000000000013
#05312:0000230000000013
#0541b:13
#05412:0000001400000023
#05414:0014
#05416:1300000000140000
#05418:00000000000000130000000014000000
#0541a:0000000000000014
#05415:00000000000000000000000000130000
#05916:0000130000130013
#05917:13000013
#0591b:0000130000130013
#05912:13001313
#0601b:0013130013000000
#06015:00000000000000000013000013000000
#06012:00130000000013000000000000001300
#06018:0000000000130000
#06017:0000001300000000
#0611b:1300000000130000
#06112:00000013130000000000000013001300
#06116:13
#06117:0000130000001313
#06115:0000001300000000
#06118:0013
#0621b:00000013130000000000130000001300
#06218:00001313
#06215:0000000000130013
#06212:0013
#06216:00130000
#0631b:0013000000001300
#06318:00000000130000001300130000130000
#06315:00001300000013000000001300001300
#06312:13000013
#06415:1316001600162300
#06412:0000130013000023
#0641b:13131323
#06418:0000000000000023
#0651b:0000000000131300
#06518:13000000130016001300000000130013
#06512:0016000000131300
#06515:1300130013000013
#02316:00130000130000000000130000001300
#02312:00001313
#02317:00001323
#0231b:0000000000230023
#03916:00000000000000141400000000000000
#03917:00130000130000000000000000000000
#03912:0000000000242400
#0391a:0000000000242400
#03910:00410000
#04318:0000000000130000
#04315:0000001300000000
#04312:002c2c2c
#05516:0013000000230000
#0551b:0013000000230000
#05519:00000023
#05517:0000002300000023
#05514:00000023
#05512:0000000000000023
#05716:0000001300000013
#0571b:0013131300001313
#05718:00000000000000001300001300000000
#05715:0000000000130000
#05712:00000013
#05816:0013131300141314
#0581b:00000013
#05812:1313000013000000
#05817:0013
#00215:1300000000130000
#00212:0013000000000013
#0021b:0013000000000013
#00218:1300000000130000
#00612:13131313
#0061b:1313000000000013
#00618:00000000130000130000130000000000
#01212:0023000000230013
#01215:00000000130000001300000013000013
#01218:00000000000013000000001300000000
#0121b:2300000000130023
#01216:23
#01217:0023000000000000
#01315:00000000000000001300001300001300
#01318:13000000130000130000000013000000
#0131b:0013001300000000
#01312:0023000000130000
#01412:23002300000000001300000013000013
#01418:00000000130000130000000013000000
#01415:0000001300230000
#0141b:2323000000130000
#01417:0000000000000023
#01516:00002300130000000000000000140000
#01515:0000001300000000
#0151b:00000013000000001300130000000000
#01514:00000014
#01518:0000002300000014
#01517:13
#04412:00120012
#04416:2200000022140012
#0441c:1200000012000012
#04418:00220022
#04512:0012000000120000
#04516:2214001422140014
#0451c:0000001200000012
#04518:00220022
#05612:2300131300000013
#05614:00001818
#05616:0000000000130000
#0561b:2300000000130000
#05617:0000000000000013
#03217:13
#03212:0000000013000013
#03214:0000001300000000
#03218:00000000000000000000000000000013
#03219:0013000000000000
#03210:41
#03312:1300001300001300
#03315:0013000000000013
#03318:00000000130000000000000000000013
#0331b:0000001300000000
#0341b:13131300
#03415:00001300001300130000000000001300
#03412:13001313
#03418:00000000000013000000130000130013
#0351b:1300001300131313
#03518:00001300001300000000000000000000
#03515:00130013
#03512:1300001300000000
#03513:0000000000000013
#03615:13
#03616:0000001300000000
#03612:00131313
#0361b:1300001300001313
#03617:00131300
#03618:00000000000000000000000000000013
#05016:0000000013140014
#05012:00000013
#05017:0013131300001300
#0501b:1313000013000000
#03715:13000013000000000000000013001300
#03718:0000130000130013
#0371b:0000001300001300
#03712:0013001300130000
#03817:0013001300001313
#0381b:0000130000130000
#03812:0000001300001313
#03814:0013
#03816:0000130000130000
#03819:0013
#06615:0022000022000000
#06612:22220000
#06619:0022000022000000
#0661c:22220000
#01158:0000005300000000
#0195b:1300006300000000
#0215b:0000001300000000
#02158:0000000000000063
#02152:0000001300000000
#0225b:0000000000000053
#0245b:0000000000000053
#02652:0023000000000053
#02656:53
#02856:53
#0285b:0000000000000053
#02852:00000023000000000000000000000000
#0305b:0000000000000053
#03152:0053000000001300
#03156:0000001300000000
#03157:0013
#0315b:00000013
#0425a:0000000000000014
#04652:00000053
#04852:53
#0485b:1300000000000053
#05556:0053000000000000
#05552:0000001300000000
#05557:0000001300000000
#0575b:0000000000000063
#05856:0063000000000000
#05957:63
#05956:0000000000000053
#0595b:00230000
#0615b:53
#06152:0000000000000053
#06157:00130000
#06455:0016001600160000
#06552:0016000000000000
#06558:0000001600000000
#06659:0012
#06655:0012
#0525b:0000230000000053
#05258:0000230000530000000053002300630000000000000000000000000000000000
#05255:0000230000630000000063002300530000000000000000000000000000000000
#05252:00230000
#05452:0000000000000053
#00352:0000005300000000
#0075b:0013
#00752:0013
#00958:0043
#00955:00000033
#01555:0000006300000000
#01656:1313
#01657:00130000
#02356:00230000000000000000000000000000
#02552:00000013
#02758:00000013
#0295b:00000013
#0395a:0000000000141400
#03952:0000000000141400
#03957:00230000000000000000000000000000
#0475b:0000000000131300
#04752:0000000000131300
#05158:0000000000000000000000000000000000000000000000000000000000000053
#0515b:0000000000000023
#05156:53
#05152:0000230000000023
#05155:0000000000000000000000000000000000000000000000000000000000000063
#05652:1300000000000063
#0565b:63
#06052:00230000000000000000000000000000
#06256:00130000
#06252:0053
#06258:00000053
#0625b:0000000000000023
#06255:0000000000230000
#06358:13
#06352:53130000
#06355:0023000000000000
#0185b:13
#01852:0013
#03257:1313
#03256:00130000
#0345b:0013
#03452:13
#03552:1300005300000000
#04952:0000000000000053
#05057:0053000000000000
#0375b:0000001300000000
#03752:0000001300000000
#03755:0000000000000053
#03852:0000000000000063
#01355:0033
#01358:00000043
#05352:00630000
#003320:0000001300000000
#003370:0000000000230000
#011380:0000001300000000
#0113b0:0000000000230000
#015350:0000001300000000
#015320:0000000000230000
#0163b0:13
#016370:00230000
#016321:00130000
#016361:0023
#0193b1:0000001300000000
#019361:0000000000230000
#021381:0000000000000013
#0223b1:0023000000000000
#0223b1:0000000000000013
#023361:00530000000000000000000000000000
#0233b1:00230000
#0243b1:0000000000000013
#025361:0023000000000000
#026361:13230000
#026321:0053000000000000
#026321:0000000000000013
#027371:0023000000000000
#0273b1:0000000013230000
#028361:1300002300000000
#028321:00000053000000000000000000000000
#0283b1:0000000000000013
#029361:0023000000000000
#0303b1:0000000000000013
#031371:0023000000000000
#031320:0013000000000000
#031360:0000002300000000
#032320:13
#032360:00230000
#0323b1:00130000
#032371:0023
#035321:0000001300000000
#035371:0000000000230000
#037351:0000000000000013
#038321:0023000000000000
#038321:0000000000000013
#039371:00530000000000000000000000000000
#039321:00230000
#046321:00000013
#046371:00000000000000000000000000000023
#048321:13
#048361:0000002300000000
#0483b1:0000000000000013
#049371:00230000
#049321:0000000000000013
#050371:0033000000000000
#050321:0000002300000000
#051361:1323
#051321:00530000
#0513b1:0000000000000013
#051381:0000000000000000000000000000000000000000000000000000000000000053
#052351:00530000000053000000000000000000
#052381:0000000000530000000053000000530000000000000000000000000000000000
#0523b1:00332300
#051320:0000000000000013
#051350:0000000000000000000000000000000000000000000000000000000000000053
#052380:00530000000053000000000000000000
#052350:0000000000530000000053000000530000000000000000000000000000000000
#052320:00332300
#0523b0:0000000000000013
#053360:0023000000000000
#052321:0000000000000014
#053321:0024000000000000
#053321:00130000
#053371:0023
#0533a0:00142400
#054320:0000000000000013
#055360:0033000000000000
#055320:0000002300000000
#0563b0:13
#056370:0000002300000000
#056320:0000000000000013
#057360:00230000
#0573b0:0000000000000013
#058360:0033000000000000
#0583b0:0000002300000000
#059370:1323
#0593b0:00530000
#059360:0000000000000013
#060320:00530000000000000000000000000000
#060360:00230000
#0613b0:13
#061370:00000023000000000000000000000000
#061320:0000000000000013
#062360:00000023000000000000000000000000
#062320:00001323
#062350:0000000000530000
#062381:00000013
#0623b1:0000000000000053
#063381:23
#063320:13230000
#063350:0053000000000000
