This file was generated by Ched 2.7.0.0.
#TITLE ""
#ARTIST ""
#DESIGNER ""
#DIFFICULTY 0
#PLAYLEVEL
#SONGID ""
#WAVE ""
#WAVEOFFSET 0
#JACKET ""
#REQUEST "ticks_per_beat 480"
#00002: 4
#BPM01: 158
#00008: 01
#TIL00: ""
#HISPEED 00
#MEASUREHS 00
#0001a:14
#00212:14
#0041a:1414
#00414:00140014
#00612:1414
#00618:00140014
#00814:00140000
#00818:0014
#00812:00000014
#0081a:24
#00810:41
#00918:14
#00914:00140000
#0091a:0014
#01018:00140000
#01014:0014
#0101a:00000014
#01012:14
#01114:14
#01118:00140000
#01112:0014
#01214:00140000
#01218:0014
#01212:00000014
#0121a:24
#01418:00140000
#01414:0014
#0141a:00000014
#01412:14
#0161a:1414
#01614:00140000
#01610:41
#01712:1414
#01718:00140000
#0181a:1414
#01814:00140014
#01918:1414
#01912:00140000
#02012:14
#02018:00140000
#02014:0014
#0201a:00000014
#02112:14
#02118:00140000
#02114:0014
#0221a:14140000
#02214:00001414
#02414:1414
#02418:00140000
#02410:41
#02518:1414
#02514:00140000
#02612:1414
#02618:00140000
#0271a:1414
#02714:00140000
#02812:14
#02818:00140000
#02814:0014
#0291a:14
#02914:00140000
#02918:0014
#03012:14
#03018:00140000
#03014:0014
#0301a:00000014
#03112:14
#03118:00140000
#03114:0014
#0311a:00000014
#03212:1414
#03218:00140000
#03210:41
#0331a:1414
#03314:00140000
#03412:1414
#03418:00140014
#03514:1414
#0351a:00140000
#0361a:14
#03614:00140000
#03618:0014
#03612:00000014
#0371a:14
#03714:00140000
#03718:0014
#03812:14140000
#03818:00001414
#0401a:2414
#0401f:11
#04012:24
#04112:0014
#04116:24
#0421a:0014
#04216:24
#04412:2414
#0441a:24
#0451a:0014
#04516:24
#04612:0014
#04616:24
#04814:00140000
#04818:2614
#04812:00000014
#0481f:21
#04918:14
#04912:00140000
#0491a:0014
#04914:00000014
#04910:41
#05118:14
#05212:1414
#05218:1414
#05214:00140000
#0521a:00140000
#0531a:1414
#05314:1414
#05318:00140000
#05312:00140000
#05412:14
#05418:00140000
#05414:0014
#0541a:00000014
#05514:14
#05518:00140000
#05618:00140000
#05614:0014
#0561a:00000014
#05612:26
#05714:14
#0571a:00140000
#05712:0014
#05718:00000014
#05914:14
#0601a:14
#06014:00140000
#06018:0014
#06012:00000014
#0611a:14
#06114:14
#06112:00140000
#06118:00140000
#06212:14
#06218:00140000
#06214:0014
#0621a:00000014
#06312:14
#06318:14
#0631a:00140000
#06314:00140000
#06412:14
#06416:00140014
#0641a:0014
#06512:14
#06516:00140014
#0651a:0014
#04312:24
#0431a:24
#0471a:24
#04712:24
#06614:24240000
#06618:0024000024000000
#0051a:00343400
#00712:00340000
#03910:00410000
#0315a:00000014
#04858:16
#05158:54
#05954:64
#05652:16
#06658:0014
#000340:0000000000140034
#001340:0024000000000000
#002380:0000000000140034
#003380:0024000000000000
#0053a0:14343400
#005380:00000024
#007320:14340000
#007340:0024
#013380:14
#013390:00340000
#0133a0:0024
#015340:14
#015330:00340000
#015320:0024
#023380:14
#0233a0:0024
#039340:14
#039320:0024
#0503a0:14
#050380:00240000
#050320:0014
#050340:00000024
#051380:14
#0513a0:00000024
#055320:00001424
#0553a1:00001424
#058321:14
#058341:00240000
#0583a1:0014
#058381:00000024
#059341:14
#059321:00000024
