This file was generated by Ched 2.7.0.0.
#TITLE ""
#ARTIST ""
#DESIGNER ""
#DIFFICULTY 0
#PLAYLEVEL
#SONGID ""
#WAVE ""
#WAVEOFFSET 0
#JACKET ""
#REQUEST "ticks_per_beat 480"
#00002: 4
#BPM01: 168
#00008: 01
#TIL00: ""
#HISPEED 00
#MEASUREHS 00
#0081a:14
#00810:41
#00914:14
#01018:14
#01112:14
#0121a:14
#01314:14
#01418:14
#01512:14
#0161a:14
#01610:41
#0171a:14
#01814:14
#01914:14
#02412:14
#02410:41
#02512:14
#02618:14
#02718:14
#0321a:14
#0321f:11
#03312:14
#03612:14
#0371a:14
#0401a:14
#04112:14
#04218:2616
#0421f:21
#04210:0041
#04312:16
#04318:0016
#04412:1616
#04518:16
#04512:0016
#04712:16
#04718:0016
#04812:16
#04818:0016
#04912:16
#04918:0016
#05118:16
#05112:0016
#05218:1616
#05312:1616
#05512:0016
#05718:0016
#06212:16
#06218:0016
#06312:16
#06318:0016
#05812:26
#05818:0026
#05810:41
#05912:26
#05918:0026
#06012:26
#05010:0041
#000390:14
#001390:24
#002330:14
#003330:24
#0043a0:14
#0053a0:24
#006320:14
#007320:24
#020380:14
#021380:24
#022320:14
#023320:24
#028340:14
#029340:24
#0303a0:14
#0313a0:24
#034380:14
#035380:24
#038340:14
#039340:24
#046380:1626
#050320:1626
#054380:1636
#055380:26
#056320:1636
#057320:26
#060320:1626
#061380:1626
#064320:16
#066320:26
