This file was generated by Ched 2.7.0.0.
#TITLE ""
#ARTIST ""
#DESIGNER ""
#DIFFICULTY 0
#PLAYLEVEL
#SONGID ""
#WAVE ""
#WAVEOFFSET 0
#JACKET ""
#REQUEST "ticks_per_beat 480"
#00002: 4
#BPM01: 168
#00008: 01
#TIL00: ""
#HISPEED 00
#MEASUREHS 00
#00216:00000000000000140000000000001400
#0021a:14
#00312:00000000000000140000000000000000
#00812:13131313
#0081b:0000001300000000
#00819:0000000000130000
#00817:0000000000000013
#00818:26
#00810:41
#00912:13131313
#00917:0000001300000000
#00919:0013
#0091b:0000000000130000
#01017:13000000000000000013000000001300
#01012:13131313
#0101b:0000001300000000
#01112:13131313
#01119:0000001300000013
#0111b:13
#01117:0013000000000000
#0121b:13131313
#01212:1600001300000000
#01214:0000000000130000
#01216:0000000000000013
#01512:0013130000000013
#01518:0013130000130000
#01515:0000001300001300
#0151b:0013
#0131b:13131313
#01316:0000001300000000
#01314:0013
#01312:0000000000130000
#0141b:1300130013001313
#01412:0000001300000013
#01416:13000000000000000013000000000000
#01618:1300001300000000
#01615:00000013
#0161b:0023000000000023
#01612:0023
#01610:41
#01717:0013333300000000
#0171b:00000000001300000000000000000000
#01712:0000000013333300
#01716:00000000000000000000001300000000
#01718:0000000000000013
#02012:00130000
#02015:0013000000000000
#02018:13
#02016:00000000000000000013000000000000
#02017:00130000
#0211b:0013000000130000
#02118:0000001300000013
#02112:00130013
#02115:0013
#02218:0013000000000000
#0221b:00130000
#02219:0000000000000014
#02213:0000000000000014
#02216:00130000
#02215:13
#02217:0013
#02418:0013001300000000
#02412:13131313
#0241b:23131300
#02417:0000000000000013
#02410:41
#02512:13131313
#02518:00000013
#0251b:0013000013000013
#02515:0000000000130000
#02519:00330000
#02815:13
#02818:0013000000000000
#0281b:13130000
#02817:00000000000000000000001300000000
#02812:00131313
#02915:0013001300000013
#02918:0000130000130000
#02912:13001313
#0291b:00001313
#03012:1300130000000013
#0301b:1300130013001313
#03016:0013
#03018:0013000000000000
#03216:0000000000130013
#0321b:0000000000001313
#03217:13
#0321f:11
#03212:23
#03316:00000000000014000000001400000000
#0331a:0014
#03312:0000000014000014
#03416:0013000000000000
#0341b:00130000
#03412:00000013
#03417:0000000000001313
#03717:13
#03716:00000000000014000000001400000000
#03712:0014
#0371a:0000000014000014
#03917:00130000
#03919:0000000013000013
#0391b:00000013
#03912:00130000
#03914:0013
#03916:00000013
#0351b:0013000000000013
#03514:0000001300000000
#03512:0000000000130000
#03519:0000001300000000
#03517:0000000000130000
#03616:13
#0361b:23
#04017:13
#04016:0000001313000000
#04012:13
#04216:0013
#04218:0000001300001300
#04215:0000130000000013
#0421b:0013
#04214:28
#0421f:21
#04210:0041
#0431b:1313
#04312:1313
#04318:0013001300000000
#04315:00130000
#04314:00000013
#04319:00000013
#04416:00130000
#04417:1313
#04415:00000013
#04418:0000000000000013
#0441b:00130000
#04412:13
#0451b:13001313
#04515:0013001300000013
#04518:00000000130000000000130000000013
#04512:13001313
#04912:13001313
#0491b:13001313
#04915:00000000130000000000130000000013
#04918:0013001300000013
#05212:0000130000130000
#05217:0000130000130000
#0521b:0000001300000000
#05216:0000001300000013
#05316:0000000013000014
#05312:0000001300000000
#05317:00000013
#0531b:0013000000130000
#05412:14140000
#05416:00001400000000140000000000000000
#0541a:00140000
#0541b:0000000000000023
#05419:00000023
#05417:0000000000230000
#05512:0014000014001400
#05516:00000000140000000000140000000014
#0551a:0000001400001400
#0561b:0000000000130000
#05618:00000013
#05615:0000000000000013
#05612:0000002300000000
#05614:00230000
#05616:0023000000000000
#05712:1314
#0571a:00000014
#0571b:00130000
#05718:2324
#05715:00230000
#05714:00000024
#05816:1400001400001300
#0581a:14
#05812:0000001300000000
#05810:41
#06017:00000013000000000000130000000000
#06016:0000001300000000
#06015:0000000000000013
#06018:0000000000000013
#0601a:2400002400001400
#06012:00000024000000000000000024000000
#00616:00000013
#00614:0013
#00612:0000130000000014
#0051b:00000013
#00519:0013
#00517:00130000
#00412:00000013
#00414:0013
#00416:00130000
#00012:1400000000000014
#00016:14
#0001a:00000000000000140000000000000000
#00116:00000000000000140000000000000000
#03118:0013000000001300
#03115:0000130000130013
#0311b:0000001300000013
#03112:0000001300000000
#04612:2300000025000013
#0461b:2300000000000013
#04615:0000001300000000
#04619:0025
#04715:13000000000000130000000000000000
#04718:0013001313000000
#04712:00130013
#0471b:00130013
#04817:00130000
#04816:1313
#04818:00000013
#04815:0000000000000013
#04812:00130000
#0481b:13
#04819:0000003300000000
#04814:0000000000330000
#0501b:2300000000000013
#05012:2300000025000013
#05018:0000001300000000
#05019:0025
#05010:0041
#05118:13000000000000130000000000000000
#05115:0013001313000000
#0511b:00130013
#05112:00130013
#0591a:0000001400000000
#05916:1400001300000000
#05912:00000013
#0621b:0013131300000000
#06212:0000000000141414
#06216:0000000000000024
#0621a:0000000000240000
#06218:00000024
#0611b:0000000000131313
#06112:14000014000000000000230000000000
#06115:0000001300000000001300000000000000000000000000000000000000000000
#0611a:14000014000000000000000000000000
#06118:0000001300000000001300000000000000000000000000000000000000000000
#06116:0000000000000023
#06114:00000023
#01815:1300001300000000
#01818:00000013
#01812:0023000000000023
#0181b:0023
#01916:0013333300000000
#01912:00000000001300000000000000000000
#0191b:0000000013333300
#01917:00000000000000000000001300000000
#01915:0000000000000013
#03817:0013000000000000
#03812:00130000
#06312:0014141400252500
#06319:0000000000252500
#02615:0013001300000000
#0261b:00131313
#02612:23131300
#02616:0000000000000013
#02618:13
#0271b:13131313
#02715:00000013
#02712:0013000013000013
#02718:0000000000130000
#02714:00330000
#00858:16
#00857:0000000000000053
#01252:16
#01256:0000000000000063
#0175b:00000000002300000000000000000000
#01757:0063000000000000
#01752:0063
#01756:00000000000000000000002300000000
#0225b:00630000
#02253:0000000000000014
#02259:0000000000000014
#02256:00630000
#02257:0023
#02052:00530000
#02056:00000000000000000023000000000000
#02057:00530000
#0095b:0000000000530000
#01057:53000000000000000023000000005300
#0105b:0000005300000000
#01452:0000006300000013
#0145b:0000000000000013
#01456:63000000000000000023000000000000
#0245b:0053
#02457:0000000000000063
#0285b:00630000
#02857:00000000000000000000002300000000
#03052:0000530000000013
#03056:0023
#03656:63
#03256:0000000000000063
#03257:53
#03757:53
#04056:0053
#04057:63
#04254:18
#04256:0053
#05352:0000006300000000
#05356:0023
#05357:00000023
#0535b:0053000000530000
#00352:00000000000000240000000000000000
#00256:00000000000000240000000000005400
#0025a:54
#00156:00000000000000240000000000000000
#00056:54
#00052:0000000000000054
#0005a:00000000000000240000000000000000
#0065a:0000000000000014
#00652:0000000000000014
#0315b:0000001300000000
#0345b:00130000
#04456:00530000
#04457:0063
#04857:00630000
#04856:0053
#0465b:53
#04652:13
#05052:63
#0505b:13
#05456:00000000000000240000000000000000
#05452:00540000
#0545b:0000000000000043
#0555a:00000064
#05556:00000000000000000000000000000024
#0585a:64
#05856:0000006400006300
#05852:0000006300000000
#0595a:0000005400000000
#05956:5400005300000000
#05952:00000053
#06056:0000005300000000
#06055:0000000000000023
#06052:00000054
#06058:0000000000000023
#0605a:00000064
#0115b:23
#01157:0053000000000000
#01352:0000000000630000
#01956:0053000000000000
#01952:00000000002300000000000000000000
#0195b:0053
#01957:00000000000000000000002300000000
#03852:00130000
#06252:0000003300000000
#06256:0000000000000014
#0635a:0000004400000000
#06352:00000035
#06359:00000045
#05652:0000003300000000
#05758:1314
#05754:00000014
#05755:00130000
#06152:54000054000000000000000000000000
#06155:0000002300000000002300000000000000000000000000000000000000000000
#06156:0000000000000013
#0615a:64000064000000000000000000000000
#06158:0000002300000000002300000000000000000000000000000000000000000000
#0255b:0023000000000000
#02652:0063
#02656:0000000000000053
#02752:0023000000000000
#0435b:0013
#04352:0013
#04354:00000013
#04359:00000013
#04758:0013
#04752:00000013
#0475b:00000013
#05155:0013
#0515b:00000013
#05152:00000013
#05257:0000000000530000
#05256:0000000000000053
#000360:1400000000000024
#0003a0:00000000000000540000000000000000
#000321:0000000000000014
#001361:00000000000000540000000000000000
#002321:24
#0023a0:1400000000000024
#002360:00000000000000540000000000000000
#002361:0000000000000014
#003321:00000000000000540000000000000000
#004361:24
#0043a0:14
#0053a0:24
#005321:14
#006321:24
#0063a0:1400000000000024
#008370:0000000000000013
#0093b0:00230000
#0093b0:0000000000130000
#009370:0000000000000023
#010370:13
#0103b0:00230000
#0103b0:0000001300002300
#010370:00000000000000000053000000000000
#010370:0000000000000013
#0113b0:53230000
#011370:0033000000000000
#011370:00001323
#012360:0000000000000013
#013320:00230000
#013320:0000000000130000
#013360:0000000000000023
#014360:13
#014320:00230000
#014320:0000001300002300
#014360:00000000000000000053000000000000
#016350:0013000000000000
#016320:0000002300000000
#016380:0013
#0163b0:00000023
#016350:0000000000000013
#017320:0023000000000000
#017371:0013333323000000
#0173b1:00000000005300000000000000000000
#017320:0000000013333323
#017360:00000000000000000000005300000000
#018380:0013000000000000
#0183b0:0000002300000000
#018350:0013
#018320:00000023
#018380:0000000000000013
#0193b0:0023000000000000
#019361:0013333323000000
#019321:00000000005300000000000000000000
#0193b0:0000000013333323
#019370:00000000000000000000005300000000
#020320:0000130000000023
#020360:00000000000000000053000000000000
#020371:00130000
#0203b1:00000000000000000053000000002300
#0223b1:00130023
#022371:0053
#022360:00130000
#022320:00005323
#0243b0:0013
#024370:00000023
#024370:0000000000000013
#0253b0:0033000000000000
#025390:00330000
#025370:0000002300000000
#026320:0013
#026360:00000023
#026360:0000000000000013
#027320:0033000000000000
#027340:00330000
#027360:0000002300000000
#0283b0:00130000
#028370:00000000000000000000005300000000
#0293b0:0023000000000000
#030320:00130023
#030360:0053
#032370:13
#0323b0:0000000000230000
#032360:0000000000000013
#033320:0000002300000000
#033370:0000000000000013
#0343b0:0023000000000000
#034320:0000000000000013
#035360:0023000000000000
#036360:13
#036320:0000000000230000
#0363b1:0000000000130000
#036381:00000000000000000000000000230000
#036350:00000000000000000000000000130000
#037320:23
#037371:13
#0373b1:0000002300000000
#037361:0000000000000013
#038321:0023000000000000
#040371:13
#0403b1:00532300
#040360:0013
#040320:00000053
#041320:33332300
#041350:0033003300000000
#040371:00000013
#0413b1:33332300
#041381:0033003300000000
#042361:0013
#042321:00000023
#044361:00130000
#044321:0023
#044370:0013
#0443b0:00000023
#0463b0:13
#046380:00000053000023000000000000000000
#048370:00130000
#048390:0000003300000000
#0483b0:0023
#048361:0013
#048341:0000000000330000
#048321:00000023
#050321:13
#050351:00000053000023000000000000000000
#052371:0000000000130000
#0523b1:0000000000000023
#052360:0000000000000013
#053320:0023000000000000
#0533b1:0013000000000000
#053371:0000002300000000
#053320:0000001300230000
#053360:0053
#0533b1:0000000000130023
#053371:00000053
#054321:0000140000240000
#054361:00000000000000540000000000000000
#0553a1:00000014
#055361:00000000000000000000000000000054
#0563a1:0024000000000000
#0583a1:14000024
#058361:0000003400000000
#058320:0000001300000000
#058360:00000033
#059320:23
#059361:14000024
#0593a1:0000003400000000
#059360:0000001300000000
#059320:00000033
#060360:23
#060360:0000001300000000
#060320:0000000000230000
#060320:00000014
#060350:0000000000000053
#061320:34000034000024000000000000000000
#061350:0000005300000000005300000000000000000000000000000000000000000000
#0603a1:00000014
#060381:0000000000000053
#0613a1:34000034000024000000000000000000
#061381:0000005300000000005300000000000000000000000000000000000000000000
#062361:0013000000000000
#062341:00330000
#062321:0000002300000000
#063361:0014000000000000
#063381:00340000
#0633a1:0000002400000000
#064331:1a
#066371:22
