This file was generated by Ched 2.7.0.0.
#TITLE ""
#ARTIST ""
#DESIGNER ""
#DIFFICULTY 0
#PLAYLEVEL
#SONGID ""
#WAVE ""
#WAVEOFFSET 0
#JACKET ""
#REQUEST "ticks_per_beat 480"
#00002: 4
#BPM01: 168
#00008: 01
#TIL00: ""
#HISPEED 00
#MEASUREHS 00
#0101b:0000000000000013
#01015:13
#01012:0000001300000000
#01115:0000001300001300
#01118:0013000013000013
#01212:1300001300000000
#01215:0000000000130000
#01218:0000130000000013
#01614:0000001300000000
#01616:00000013
#01612:13
#01617:0023000000000000
#01619:0023
#0161b:0000000000000023
#01610:41
#01715:0013333300333300
#01712:0013
#02018:0013000000000000
#02015:13130000
#0211b:0013000000000013
#02115:00130013
#02118:0000001300130000
#02112:0013
#02215:13
#02218:0013000000000000
#02415:0013000000000013
#02418:0000001300000000
#02412:0013
#0241b:23000013
#02410:41
#02515:00130000
#02512:0000001300000000
#02518:0013000000333300
#0251b:0013
#02818:13130000
#02815:0013000000000000
#03115:0013000000001300
#03118:0000130000130000
#03112:0000001300000000
#0311b:0000000000000013
#03512:0000000000000013
#03515:0000000000130000
#03518:0000001300000000
#0351b:0013000000000000
#03915:0000000013000013
#03918:00000013
#03912:00130000
#0401b:13
#04012:0013
#04018:0000001300000000
#03212:14
#03216:0014
#0321f:11
#04214:0014
#04218:2600001400001300
#04212:0000000000000013
#0421f:21
#04210:0041
#0431b:13
#04315:0013001300000000
#04318:00130000
#0431a:0014
#04312:00000014
#0451b:1300000013000013
#04512:0013000000000000
#04518:0000130000130000
#04515:00000013
#04415:0000000000000013
#04418:00130000
#0441b:0013
#0461b:0000000000000013
#04618:0000001300000000
#04612:26
#04619:0024
#04613:0024
#04712:1314
#04718:0013000000000000
#04715:00130000
#0471b:0000001300000000
#0471a:00000014
#04912:1300000013000013
#0491b:0013000000000000
#04915:0000130000130000
#04918:0000001300001300
#04818:0000000000000013
#04815:00130000
#04812:0013
#04814:0000000000330000
#04813:0000003300000000
#05012:0000000000000013
#05015:0000001300000000
#05018:26
#05013:0024
#05019:0024
#05010:0041
#0511b:13
#05115:0013000000000000
#05118:00130000
#05112:0000001300001400
#0511a:0014
#05212:0000131300000013
#05217:0000131300000013
#05216:0000000000130000
#0521b:0000000000130000
#05418:1300000000230000
#05415:0013000000000000
#05412:00130000
#0541a:00000033
#05618:0000000000130000
#05615:0023000000001300
#0561b:0000000000000013
#05613:00330000
#0631a:0000001400242400
#06316:00140000
#06312:0014000000242400
#06212:0013000000000024
#06215:00130000
#06218:0000001300000000
#06216:00000024
#0621a:0000000000240000
#00612:00000014
#00614:0014
#00616:00140000
#00618:14
#0061a:0000000000000014
#00212:1400000000000014
#00215:00000000000000140000000000000000
#0001a:1400000000000014
#00017:00000000000000140000000000000000
#01412:0000000000000013
#01412:0000000000000013
#0141b:0000001300000013
#01418:13
#01518:0013001300001300
#01515:0000130000000013
#01512:0013
#0151b:0000000000130000
#02912:0013000000000013
#02918:00130013
#02915:0000001300130000
#0291b:0013
#03018:13
#03015:0013000000000000
#0081b:2300001300000000
#00818:0000000000130000
#00815:0000130000000013
#00810:41
#00918:0000001300130000
#00915:0013
#01315:0000001300130000
#01318:0013
#01819:0000001300000000
#01817:00000013
#0181b:0013000000000000
#01816:0023000000000000
#01814:0023
#01812:0000000000000023
#01918:0013333300333300
#0191b:0013
#02618:0013000000000013
#02615:0000001300000000
#0261b:0013
#02612:0013000000001300
#03312:14
#03316:0014
#0361a:14
#03616:0014
#0371a:14
#03716:0014
#05316:0013000000000000
#05312:0000001300000000
#0531b:0013000000000013
#05317:0000001300000000
#05816:0000001400000000
#0581a:14
#05810:41
#05916:0000001400000000
#05912:14
#05515:0013000000130000
#05518:00131300
#05512:0000001300000000
#0551b:00000013
#02718:00130000
#0271b:0000001300000000
#02715:0013000000333300
#02712:0013
#06012:0000002400001400
#06016:00000024000000000000140000000000
#0601a:24000024
#06114:14
#06112:00000014000000000000000000000000
#06118:14000023
#0611a:00000014000000000000000000000000
#0611b:0000000000230000
#06115:0000000000000023
#03418:00000013
#03415:0000000000000013
#05712:2324
#0571b:00230000
#05717:0024
#05715:00230024
#0571a:00000024
#05718:23
#00419:00340000
#0041a:0034
#00513:00340000
#00512:0034
#0085b:13
#00855:0000000000000063
#01252:13
#01258:0000000000000053
#01755:0053000000000000
#01752:0023
#02858:00630000
#04052:0063
#03252:64
#03256:0024
#04258:16
#04352:00000014
#0435a:0014
#0475a:00000014
#04752:0014
#05152:00000014
#0515a:0014
#05256:0000000000530000
#05252:0000005300000053
#0525b:0000000000530000
#05257:0000005300000053
#0545b:0000000000000043
#00252:5400000000000054
#00255:00000000000000240000000000000000
#0005a:6400000000000064
#00057:00000000000000240000000000000000
#0065a:0000000000000014
#02055:00630000
#02252:0000000000000013
#0305b:0000000000000013
#00958:0000000000630000
#01055:63
#01052:0000006300000000
#01355:0000000000530000
#01958:0063000000000000
#0195b:0023
#03352:64
#03356:0024
#03452:34
#0365a:54
#03656:0024
#0375a:54
#03756:0024
#0385a:44
#04458:00630000
#0445b:0063
#04855:00530000
#04852:0053
#05352:0000005300000000
#05356:0053000000000000
#0535b:0053000000000000
#05357:0000005300000000
#05652:0000003300000000
#05856:0000006400000000
#0585a:64
#05956:0000005400000000
#05952:54
#06155:0000000000000013
#06152:00000024000000000000000000000000
#06154:54
#06158:64
#0615a:00000024000000000000000000000000
#06258:0000001300000000
#06252:0000000000000014
#0635a:0000001400001400
#06352:00000014
#0255b:0053
#02752:0063
#06052:00000054
#0605a:00000064
#04155:13
#05058:16
#04652:16
#01458:53
#0145b:0000005300000000
#0003a0:1400000000000034
#000370:00000000000000540000000000000000
#001370:0024
#002320:1400000000000034
#002350:00000000000000540000000000000000
#003350:0024
#004380:14
#004390:00340000
#0043a0:00003424
#005340:14
#005330:00340000
#005320:00003424
#008350:0000000000000013
#009320:00230000
#009380:0000000000130000
#0093b0:0000000000000023
#010350:13000023
#010320:0000333300000000
#012380:0000000000000013
#0133b0:00230000
#013350:0000000000130000
#013320:0000000000000023
#014380:13000023
#0143b0:0000333300000000
#017350:0013333300333323
#017320:0033
#019380:0013333300333323
#0193b0:0033
#020350:00130000
#020320:00000023
#022320:0000130000003323
#0253b0:0013
#025380:0000000000333323
#027320:0013
#027350:0000000000333323
#028380:00130000
#0283b0:00000023
#0303b0:0000130000003323
#032320:14
#032360:0054
#033320:34
#033360:0054
#034320:24
#0363a0:14
#036360:0054
#0373a0:34
#037360:0054
#0383a0:24
#040320:0013
#041350:23
#044380:00130023
#0443b0:0033
#048350:00130023
#048330:0000003300000000
#048320:0033
#048340:0000000000330000
#052320:0000001300000033
#052360:0000000000330000
#053360:0033000000230000
#053320:0000003300000000
#052371:0000001300000033
#0523b1:0000000000330000
#0533b1:0033000000230000
#053371:0000003300000000
#054381:0000000000130000
#0543a1:00000033
#0543b1:0000000000000023
#056351:0013000000000000
#056331:00330000
#056321:0000002300000000
#0583a1:14000024
#058361:0000003400000000
#059321:14000024
#059361:0000003400000000
#060321:00000014
#061341:3400002400000000
#061321:00000034000000000000000000000000
#0603a0:00000014
#061380:3400002400000000
#0613a0:00000034000000000000000000000000
#064340:18
#066370:22
