This file was generated by Ched 2.7.0.0.
#TITLE ""
#ARTIST ""
#DESIGNER ""
#DIFFICULTY 0
#PLAYLEVEL
#SONGID ""
#WAVE ""
#WAVEOFFSET 0
#JACKET ""
#REQUEST "ticks_per_beat 480"
#00002: 4
#BPM01: 168
#00008: 01
#TIL00: ""
#HISPEED 00
#MEASUREHS 00
#00216:00000000000000130000000000001300
#0021b:13
#00812:2c131313
#00817:0000131300130013
#0081b:00001313
#00810:41
#00912:13130013
#0091b:0000001300130013
#00918:0013
#00916:0000001300000000
#00915:0000000000130013
#01017:13
#01012:13131313
#0101b:0000001300000000
#01015:0000001300000000
#01112:13131313
#01117:0000001313000013
#01115:0000000000130000
#0111b:0000000000130000
#01212:1c001313
#0121b:00131313
#01216:0000131300130013
#01512:0000140013000013
#0151a:00140000
#01515:0000001300001300
#0151b:0013
#01518:0000001300130013
#01516:00001414000000000000000000000000
#01412:0000001300000015
#01419:0000000000000015
#01416:13
#0141b:13131313
#01418:0000001300000000
#01618:0013
#01615:0013001600001600
#01612:1300000023000013
#0161b:1323000000130023
#01610:41
#02116:0013001300000000
#0211b:00001313
#02117:0000000000130013
#02112:00130000
#02412:0013000013000013
#02417:0000000013001313
#02416:0000000000130000
#02415:2600001300000000
#0241b:0013000000130000
#02418:00130000
#02410:41
#02512:0013001300000013
#0251b:13131300
#02516:1300000000131300
#02517:0000001300000000
#02814:0013000000000000
#0281b:0000130000000013
#02816:00131313
#02812:1300000013130013
#02817:13
#02819:0013000000000000
#0291b:00131300
#02918:0000001300000000
#02917:1300000000130000
#02912:0013000000001300
#02916:0000000000000013
#02915:00130000
#03016:13
#0301b:1300000013130013
#03012:0000130000000014
#03017:00131313
#03019:0013000000000000
#03014:0013000000000000
#03212:2300000000131300
#0321b:00000013000000000000000013001300
#03216:1300000000000013
#0321f:11
#0331b:00130000
#0331a:00000000000000001400001400000000
#03312:00000000000013000000001400001400
#03316:0014
#03317:0000000000000013
#03412:0013000000001300
#0341b:1300130000000013
#03417:00000013
#03416:0000000000000013
#0391b:00130000
#03914:0000000000000013
#03916:00130013
#03919:0000000000000013
#03917:0013
#04017:1313
#04016:00130013
#04019:0000001300000000
#04012:13
#0401b:00000013
#04216:0000000013001414
#04214:0000001300000000
#04212:2c130000
#0421b:0013
#04217:00130000
#04219:0000001300000000
#0421f:21
#04210:0041
#0431b:13131300
#04312:13131300
#04318:00000013000013000000000013000000
#04315:00001300000000130000000013000000
#04418:00000000000000001300000013000013
#04415:0000000000000013
#0441b:1300130000130000
#04412:1300001300000000
#04416:0000130000130000
#04414:0013
#0451b:13131313
#04512:13131313
#04515:0000000000130013
#04518:00001300000013000000000000000013
#04915:00001300000000130000000000140000
#04913:00000000000000000014000000000000
#04914:00000000000000000000001400000000
#04916:00000000000000000000000000000014
#0491b:13130000
#04912:13130000
#04912:13
#04918:00000013000013000000000024000000
#0491a:0024
#04917:0000000000240000
#04919:0000000000000024
#05212:1300130013001313
#05217:00000013
#05216:0000131300230000
#0521b:1300001300130023
#05412:14140000
#05416:00001400000000000000240000140000
#05417:00000000000000140000000000000000
#0541a:1400140000000024
#05414:00000000000000000000001400000000
#05418:00000024
#0551a:00141414
#05512:0000141c141c1400
#05515:00000000000000000000000000000014
#05516:0014000000000000
#0561b:0000000000130000
#05616:00002400001400000000140014001400
#05612:0000002400000013
#05618:00000014000000000000000000000000
#05614:00240000
#0581b:00000013000000000000000023000000
#05816:1400001300000000
#05812:1300001300001300
#05817:00000013000000000013000000000000
#05810:41
#00612:1500150015001515
#00619:0000000000000015
#00412:15151515
#00012:1300000000000013
#00016:13
#0001b:00000000000000130000000000000000
#00116:00000013000000000000000000000000
#00112:0013
#03112:0013131300000013
#0311a:0000001400000000
#0311b:0000000000131313
#03117:00000013000000000000000000000000
#03116:00000000000000000000001300000000
#04812:1300130000130000
#0481b:1300001300000000
#04815:00000000000000000000000013000013
#04818:0000000000000013
#04817:0000130000130000
#04819:0013
#04814:0013
#04816:0000001300000000
#0591b:1300001300001300
#05917:1300001300000000
#05912:00000013000000000000000023000000
#05916:00000013000000000013000000000000
#06117:00000000000000000000001300000000
#06119:00000000000000000000000000130000
#06116:000000000000000000000000000000000000000000000000000000000000000000000000000000000000000000000000000000000000000000000000000000000000000000000000000000000000000000000000000000000000000000000000000000000000000000000000000000000000000000001400140000000000000000000000000000000000000000000000000000000000000000000000000000000000000000000000000000000000000000000000000000000000000000000000000000000000000000000000000000000000000000000000000000000000000000000000000000000000000000000000000000000000000000000000000000000000000000000000000000000000000000000000000000000000000000000000000000000000000000000000000000000000000000000000000000000000000000000000000000000000000000000000000000000000000000000000000000000000000000001400140000000000000000000000000000000000000000000000000000000000000000000000000000000000000000000000000000000000000000000000000000000000000000000000000000000000000000000000000000000000000000000000000000000000000000000000000000000000000000000000000000000000000000000000000000000000000000000000000000000000000000000000000000000000000000000000000000000000000000000000000000000000000000000000000000000000000000000000000000000000000000000000000000000000000000000000000000000000000000140000140000000000000000000000000000000000000000000000000000000000000000000000000000000000000000000000000000000000000000000000000000000000000000000000000000000000000000000000000000000000000000000000000000000000000000000000000000000000000000000000000000000000000000000000000000000000000000000000000000000000000000000000000000000000000000000000000000000000000000000000000000000000000000000000000000000000000000000000000000000000000000000000000000000000000000000000000000000000000000000000000000000000000000000000000000000000000000000000000000000000000000000000000000000000000000000000000000000000000000000000000000000000000000000000000000000000000000000000000000000000000000000000000000000000000000000000000000000000000000000000000000000000000000000000000000000000000000000000000000000000000000000000000000000000000000000000000000000000000000000000000000000000000000000000000000000000000000000000000000000000000000000000000000000000000000000000000000000000000000000000000000000000000000000000000000000000000000000000000000000000000000000000000000000000000000000000000000000000000000000000000000000000000000000000000000000000000000000000000000000000000000000000000000000000000000000000000000000000000000000000000000000000000000000000000000000000000000000000000000000000000000000000000000000000000000000000000000000000000000000000000000000000000000000000000000000000000000000000000000000000000000000000000000000000000000000000000000000000000000000000000000000000000000000000000000000000000000000000000000000000000000000000000000000000000000000000000000000000000000000000000000000000000000000000000000000000000000000000000000000000000000000000000000000000000000000000000000000000000000000000000000000000000000000000000000000000000000000000000000000000000000000000000000000000000000000000000000000000000000000000000000000000000000000000000000000000000000000000000000000000000000000000000000000000000000000000000000000000000000000000000000000000000000000000000000000000000000000000000000000000000000000000000000000000000000000000000000000000000000000000000000000000000000000000000000000000000000000000000000000000000000000000000000000000000000000000000000000000000000000000240000000000000000000000000000000000000000000000000000000000000000000000000000000000000000000000000000000000000000000000000000000000000000000000000000000000000000000000000000000000000000000000000000000000000000000000000000000000000000000000000000000000000000000000000000000000000000000000000000000000000000000000000000000000000000000000000000000000000000000000000000000000000000000000000000000000000000000000000000000000000000000000000000000000000000000000000000000000000000000000
#06118:1514140000000000
#06114:0014140000002400
#06113:15
#06112:0000000000240000
#0351b:0013000000000013
#03512:1300001300000013
#03517:0000130000130000
#03516:0013
#06219:00000013000000000000000000000000
#06214:00000000140000000000001400002600
#06216:0014000000002600
#06217:00000000001300000000000000000000
#06212:00000000000014000000000000140000
#06218:0000000000260000
#06016:00001313000000000000000000000015
#06017:00000000001313000000000000000000
#0601b:00000023000000001300000000000000
#06012:2300002300131616
#06015:000000000000000000000000000000000000000000000000000000000000000000000000000000000000000000000000000000000000000000000000000000000000000000000000000000000000000000000000000000000000000000000000000000000000000000000000000000000000000000000000000000000000000000000000000000000000000000000000000000000000000000000000000000000000000000000000000000000000000000000000000000000000000000000000000000000000000000000000000000000000000000000000000000000000000000000000000000000000000000000000000000000000000000000000000000000000000000000000000000000000000000000000000000000000000000000000000000000000000000000000000000000000000000000000000000000000000000000000000000000000000000000000000000000000000000000000000000000000000000000000000000000000000000000000000000000000000000000000000000000000000000000000000000000000000000000000000000000000000000000000000000000000000000000000000000000000000000000000000000000000000000000000000000000000000000000000000000000000000000000000000000000000000000000000000000000000000000000000000000000000000000000000000000000000000000000000000000000000000000000000000000000000000000000000000000000000000000000000000000000000000000000000000000000000000000000000000000000000000000000000000000000000000000000000000000000000000000000000000000000000000000000000000000000000000000000000000000000000000000000000000000000000000000000000000000000000000000000000000000000000000000000000000000000000000000000000000000000000000000000000000000000000000000000000000000000000000000000000000000000000000000000000000000000000000000000000000000000000000000000000000000000000000000000000000000000000000000000000000000000000000000000000000000000000000000000000000000000000000000000000000000000000000000000000000000000000000000000000000000000000000000000000000000000000000000000000000000000000000000000000000000000000000000000000000000000000000000000000000000000000000000000000000000000000000000000000000000000000000000000000000000000000000000000000000000000000000000000000000000000000000000000000000000000000000000000000000000000000000000000000000000000000000000000000000000000000000000000000000000000000000000000000000000000000000000000000000000000000000000000000000000000000000000000000000000000000000000000000000000000000000000000000000000000000000000000000000000000000000000000000000000000000000000000000000000000000000000000000000000000000000000000000000000000000000000000000000000000000000000000000000000000000000000000000000000000000000000000000000000000000000000000000000000000000000000000000000000000000000000000000000000000000000000000000000000000000000000000000000000000000000000000000000000000000000000000000000000000000000000000000000000000000000000000000000000000000000000000000000000000000000000000000000000000000000000000000000000000000000000000000000000000000000000000000000000000000000000000000000000000000000000000000000000000000000000000000000000000000000000000000000000000000000000000000000000000000000000000000000000000000000000000000000000000000000000000000000000000000000000000000000000000000000000000000000000000000000000000000000000000000000000000000000000000000000000000000000000000000000000000016160000000000000000000000000000000000000000000000000000000000000000000000000000000000000000000000000000000000000000000000000000000000000000000000000000000000000000000000000000000000000000000000000000000000000000000000000000000000000000000000000000000000000000000000000000000000000000000000000000000000000000000000000000000000000000000000000000000000000000000000000000000000000000000000000000000000000000000000000000000000000000000000000000000000000000000000000000000000000000000015000000000000000000000000000000000000000000000000000000000000000000000000000000000000000000000000000000000000000000000000000000000000000000000000000000000000000000000000000000000000000000000000000000000000000000000000000000000000000000000000
#06018:0000000000002616
#00312:00000013000000000000000000000000
#00316:0013
#00318:00000013
#00519:15151515
#0171b:0013000000000000
#01715:0000000000000013
#01717:0000131300000000
#01712:0000000000131300
#02612:0013000000130000
#0261b:0013000013000013
#02616:0000000013001313
#02617:0000000000130000
#02618:0000001300000000
#02615:26130000
#03617:13000000000000000000000000130000
#03612:00000013000000000000000000000000
#0361b:23000000000000000000130000130000
#03717:13
#0371b:0000001300000000
#03712:00000000130000001400001400000000
#0371a:00000000000000000000001400001400
#03716:0000000014000013
#0381b:0013000000000000
#03812:13130000
#05016:00000014000014000000000000000000
#0501b:0000000000000013
#05012:2400000024000013
#0501a:2424
#05010:0041
#04616:00000014000014000000000000000000
#04612:2400000024000013
#0461b:2300000000000013
#0461a:0024
#0531b:13131300
#05317:1313002300000000
#05312:0023130000001300
#05316:0000000000000014
#06312:0000001400000000000000002c000000
#06316:00160000
#06314:00001600001400000000002800000000
#06318:0000001600000000
#06315:0000000000260000
#02019:0013000000000000
#0201b:13
#02016:13
#02014:0013000000000000
#02015:0000000000130013
#02012:00000013
#0131b:13130013
#01312:0000001300130013
#01315:0013
#01317:0000001300000000
#01318:0000000000130013
#0271b:0013001300000013
#02712:13131300
#02717:1300000000131300
#02716:0000001300000000
#05712:0013260000132600
#05716:00000014000000140000001400000014
#0571b:0000001300000013
#05718:2626
#02218:0000000000130013
#0221b:00000013
#02214:0013000000000000
#02212:13
#02217:13
#02219:0013000000000000
#01815:0000001613001600
#01818:0013000000000000
#0181b:1300000023000013
#01812:1323000000130023
#01912:0013000000000000
#01918:0000000000000013
#01916:0000131300000000
#0191b:0000000000131300
#05118:13000013
#05112:00001300000000130000000000000000
#0511b:00000013000013000000000000000000
#05115:13161613
#04715:13161613
#0471b:00001300000000130000000000000000
#04712:00000013000013000000000000000000
#04718:13000013
#00852:1c
#00857:0000005300530053
#0085b:00002323
#01252:1c002323
#01256:0000006300630063
#0095b:0000000000530000
#00956:0000005300000000
#01057:53
#0105b:0000005300000000
#01452:0000006300000015
#01459:0000000000000015
#01456:63
#02452:0063
#02456:0000000000230000
#02457:0000000000000053
#02455:16
#0285b:00630000
#02856:0023
#03052:0000530000000034
#03057:0023
#0305b:0000000000000023
#03256:5300000000000063
#0325b:00000023000000000000000000000000
#04056:00530053
#04057:6353
#0405b:00000053
#04252:1c
#04256:0053
#05257:00000023
#05252:0000000023000053
#0525b:0000000000530043
#05256:0000005300430000
#0025b:53
#00256:00000000000000230000000000006300
#00156:00000023000000000000000000000000
#00152:0053
#00056:53
#00052:0000000000000053
#0005b:00000000000000230000000000000000
#05052:6434
#05056:00000024000000000000000000000000
#0505a:1444
#05457:00000000000000240000000000000000
#05452:00540000
#0545a:0000000000000044
#0555a:00000064
#05555:00000000000000000000000000000024
#05856:6400006300000000
#05852:6300005300005300
#05857:00000023000000000023000000000000
#0585b:00000023000000000000000013000000
#0595b:5300005300005300
#05957:5300005300000000
#05952:00000023000000000000000013000000
#05956:00000023000000000023000000000000
#0355b:0053000000000000
#03557:00230000
#03552:2300006300000000
#03556:0023
#00652:0000000000000015
#00659:0000000000000015
#05652:0000003400000000
#05758:1616
#05752:00160016
#00352:00000023000000000000000000000000
#00356:0063
#01157:0053
#0115b:0000000000230000
#0255b:23
#03152:0000002300000000
#0315a:0000004400000000
#0345b:23430000
#03452:0033000000000000
#03456:0000000000000053
#03357:0000000000000063
#03757:53
#03756:0000000000000053
#03657:63000000000000000000000000530000
#03652:00000023000000000000000000000000
#03852:23330000
#0385b:0043000000000000
#04656:00000024000000000000000000000000
#0465b:53
#04652:1434
#0465a:0044
#0535b:00230000
#05357:2353003300000000
#05352:0033000000340000
#0535a:0000000000000044
#03957:0053
#03956:00630000
#04152:0013
#04157:0013
#0605b:0023
#06057:0000006300000000
#06058:0000000000002626
#06055:000000000000000000000000000000000000000000000000000000000000000000000000000000000000000000000000000000000000000000000000000000000000000000000000000000000000000000000000000000000000000000000000000000000000000000000000000000000000000000000000000000000000000000000000000000000000000000000000000000000000000000000000000000000000000000000000000000000000000000000000000000000000000000000000000000000000000000000000000000000000000000000000000000000000000000000000000000000000000000000000000000000000000000000000000000000000000000000000000000000000000000000000000000000000000000000000000000000000000000000000000000000000000000000000000000000000000000000000000000000000000000000000000000000000000000000000000000000000000000000000000000000000000000000000000000000000000000000000000000000000000000000000000000000000000000000000000000000000000000000000000000000000000000000000000000000000000000000000000000000000000000000000000000000000000000000000000000000000000000000000000000000000000000000000000000000000000000000000000000000000000000000000000000000000000000000000000000000000000000000000000000000000000000000000000000000000000000000000000000000000000000000000000000000000000000000000000000000000000000000000000000000000000000000000000000000000000000000000000000000000000000000000000000000000000000000000000000000000000000000000000000000000000000000000000000000000000000000000000000000000000000000000000000000000000000000000000000000000000000000000000000000000000000000000000000000000000000000000000000000000000000000000000000000000000000000000000000000000000000000000000000000000000000000000000000000000000000000000000000000000000000000000000000000000000000000000000000000000000000000000000000000000000000000000000000000000000000000000000000000000000000000000000000000000000000000000000000000000000000000000000000000000000000000000000000000000000000000000000000000000000000000000000000000000000000000000000000000000000000000000000000000000000000000000000000000000000000000000000000000000000000000000000000000000000000000000000000000000000000000000000000000000000000000000000000000000000000000000000000000000000000000000000000000000000000000000000000000000000000000000000000000000000000000000000000000000000000000000000000000000000000000000000000000000000000000000000000000000000000000000000000000000000000000000000000000000000000000000000000000000000000000000000000000000000000000000000000000000000000000000000000000000000000000000000000000000000000000000000000000000000000000000000000000000000000000000000000000000000000000000000000000000000000000000000000000000000000000000000000000000000000000000000000000000000000000000000000000000000000000000000000000000000000000000000000000000000000000000000000000000000000000000000000000000000000000000000000000000000000000000000000000000000000000000000000000000000000000000000000000000000000000000000000000000000000000000000000000000000000000000000000000000000000000000000000000000000000000000000000000000000000000000000000000000000000000000000000000000000000000000000000000000000000000000000000000000000000000000000000000000000000000000000000000000000000000000000000000000000000000056660000000000000000000000000000000000000000000000000000000000000000000000000000000000000000000000000000000000000000000000000000000000000000000000000000000000000000000000000000000000000000000000000000000000000000000000000000000000000000000000000000000000000000000000000000000000000000000000000000000000000000000000000000000000000000000000000000000000000000000000000000000000000000000000000000000000000000000000000000000000000000000000000000000000000000000000000000000000000000000055000000000000000000000000000000000000000000000000000000000000000000000000000000000000000000000000000000000000000000000000000000000000000000000000000000000000000000000000000000000000000000000000000000000000000000000000000000000000000000000000
#06052:0000000000002626
#06056:00000000000000000000000000000065
#01352:0000000000630000
#01357:0000006300000000
#0265b:0053
#02657:0000000000230000
#02656:0000000000000063
#02752:23
#04552:33330000
#0455b:00004343
#04857:0000630000230000
#04859:0053
#0485b:0000002300000000
#04456:0000530000230000
#04454:0063
#04452:0000002300000000
#06352:0000001c
#06358:0000004600000000
#04355:00000013
#04358:00000013
#04352:0033
#0435b:0043
#06156:000000000000000000000000000000000000000000000000000000000000000000000000000000000000000000000000000000000000000000000000000000000000000000000000000000000000000000000000000000000000000000000000000000000000000000000000000000000000000000005400640000000000000000000000000000000000000000000000000000000000000000000000000000000000000000000000000000000000000000000000000000000000000000000000000000000000000000000000000000000000000000000000000000000000000000000000000000000000000000000000000000000000000000000000000000000000000000000000000000000000000000000000000000000000000000000000000000000000000000000000000000000000000000000000000000000000000000000000000000000000000000000000000000000000000000000000000000000000000000005400640000000000000000000000000000000000000000000000000000000000000000000000000000000000000000000000000000000000000000000000000000000000000000000000000000000000000000000000000000000000000000000000000000000000000000000000000000000000000000000000000000000000000000000000000000000000000000000000000000000000000000000000000000000000000000000000000000000000000000000000000000000000000000000000000000000000000000000000000000000000000000000000000000000000000000000000000000000000000000540000640000000000000000000000000000000000000000000000000000000000000000000000000000000000000000000000000000000000000000000000000000000000000000000000000000000000000000000000000000000000000000000000000000000000000000000000000000000000000000000000000000000000000000000000000000000000000000000000000000000000000000000000000000000000000000000000000000000000000000000000000000000000000000000000000000000000000000000000000000000000000000000000000000000000000000000000000000000000000000000000000000000000000000000000000000000000000000000000000000000000000000000000000000000000000000000000000000000000000000000000000000000000000000000000000000000000000000000000000000000000000000000000000000000000000000000000000000000000000000000000000000000000000000000000000000000000000000000000000000000000000000000000000000000000000000000000000000000000000000000000000000000000000000000000000000000000000000000000000000000000000000000000000000000000000000000000000000000000000000000000000000000000000000000000000000000000000000000000000000000000000000000000000000000000000000000000000000000000000000000000000000000000000000000000000000000000000000000000000000000000000000000000000000000000000000000000000000000000000000000000000000000000000000000000000000000000000000000000000000000000000000000000000000000000000000000000000000000000000000000000000000000000000000000000000000000000000000000000000000000000000000000000000000000000000000000000000000000000000000000000000000000000000000000000000000000000000000000000000000000000000000000000000000000000000000000000000000000000000000000000000000000000000000000000000000000000000000000000000000000000000000000000000000000000000000000000000000000000000000000000000000000000000000000000000000000000000000000000000000000000000000000000000000000000000000000000000000000000000000000000000000000000000000000000000000000000000000000000000000000000000000000000000000000000000000000000000000000000000000000000000000000000000000000000000000000000000000000000000000000000000000000000000000000000000000000000000000000000000000000000000000000000000000000000000000000000000000000000000000000000000000000000000000000000000000000000000000000000000000000000140000000000000000000000000000000000000000000000000000000000000000000000000000000000000000000000000000000000000000000000000000000000000000000000000000000000000000000000000000000000000000000000000000000000000000000000000000000000000000000000000000000000000000000000000000000000000000000000000000000000000000000000000000000000000000000000000000000000000000000000000000000000000000000000000000000000000000000000000000000000000000000000000000000000000000000000000000000000000000000000
#06158:2524240000000000
#06154:0024240000000000
#06153:25
#02258:0000000000000043
#02255:0000000000000033
#05158:00000013
#05155:00001613
#04755:00001613
#04758:00000013
#06254:0000000000000016
#06252:0000003400000000
#000360:1300000000000023
#0003b0:00000000000000530000000000000000
#000321:0000000000000013
#001361:00000053000000000000000000000000
#001321:0033
#002361:23
#0023b0:1300000000000023
#002360:00000000000000530000000000000000
#002361:0000000000000013
#003321:00000053000000000000000023000000
#003361:0033
#0043b1:13003333
#004371:0000330000330023
#005321:13003333
#005361:0000330000330023
#006371:1300003300330000
#0063b1:00333323
#008371:0000001300330033
#0083b1:00005353
#0093b1:53230000
#009361:0000001300000000
#009321:0023
#0093b1:0000000000130000
#009371:00000023
#010371:13
#0103b1:0053230000000000
#0103b1:0000001300000000
#010371:00005323
#010371:0000000000000013
#0113b1:23
#011371:0013000000000000
#0113b1:00230000
#011371:00001323
#0113b1:0000000000530000
#012361:0000001300330033
#012321:00005353
#013321:53230000
#013371:0000001300000000
#0133b1:0023
#013321:0000000000130000
#013361:00000023
#014361:13
#014321:0053230000000000
#014321:0000001300000000
#014361:00005323
#017371:0013000023000000
#017321:0000333300000000
#0173b0:0000000013000023
#017370:0000000000333300
#019360:0013000023000000
#0193b0:0000333300000000
#019321:0000000013000023
#019361:0000000000333300
#020321:00130000
#020361:0023
#020370:00130000
#0203b0:00003333
#020380:0000000000330023
#0213b0:0013002300000000
#021380:00330000
#021360:0013
#021320:0000000000230000
#021360:00000013
#021320:0000000000000023
#0223b0:00130000
#022370:0023
#022361:00130000
#022321:00003333
#022351:0000000000330023
#024321:00001323
#024361:0000000000530000
#024371:0000000000000013
#0253b1:53
#025371:0023000000000000
#025361:0013
#025321:0000000000230000
#0253b1:00000013
#025371:0000000000000023
#0263b1:00001323
#026371:0000000000530000
#026361:0000000000000013
#027321:53
#027361:0023000000000000
#027371:0013
#0273b1:0000000000230000
#027321:00000013
#027361:0000000000000023
#0283b1:00130023
#028361:0053
#029361:0013
#029321:0000000000230000
#029371:00000013
#0293b1:0000000000000023
#030321:00130023
#030371:0053
#0303b1:0000000000000013
#031371:0023000000000000
#031321:0000001300000000
#031361:0000000000230000
#032361:1300000000230000
#0323b1:00000053000000000000000000000000
#032361:0000000000000013
#033321:53230000
#033371:0000000000000013
#0343b1:53
#034371:0023000000000000
#034361:0000000000000013
#035321:53
#035361:0023000000000000
#0353b0:0013002300000000
#035370:00530000
#035321:0000001300230000
#035361:0053
#036371:1300000000230000
#036321:00000053000000000000000000000000
#036371:00000000000000000000000000130000
#037321:23
#037370:13
#0373b0:0053230000000000
#037360:0000000000000013
#038320:53
#038360:0023000000000000
#039360:00130000
#039320:0000005323000000
#039371:0013
#0393b1:0000000000532300
#040371:13
#0403b1:00230000
#040360:00130000
#040320:0023
#040371:0013
#0403b1:00000053
#041371:33332300
#0413b1:0033003300000000
#040360:00000013
#041320:33332300
#041360:0033003300000000
#042360:0013
#042320:00000023
#044360:0000130000330000
#044320:0000005300002300
#044340:0033
#0463b0:13
#046360:00000054000000000000000000000000
#0463a0:0000002400000000
#048370:0000130000330000
#0483b0:0000003300002300
#048390:0033
#050320:1400002400000000
#050360:00000054000000000000000000000000
#052360:0000001300230000
#052320:0053
#0523b1:0000000000130023
#052371:00000053
#052320:0000000000000013
#053370:53
#053320:0023000000000000
#053371:0013002300000000
#0533b1:00530000
#053320:0000001400240000
#053370:0034
#0533a1:0000000000140024
#053351:00000034
#054321:0000140000240000
#054371:00000000000000540000000000000000
#0553a1:00000014
#055351:00000000000000000000000000000054
#0563a1:0024000000000000
#058361:1400003300000000
#0583b1:00000053000000000053000023000000
#058320:1300003300003300
#058370:00000053000000000053000000000000
#059370:3300003300000000
#059320:00000053000000000053000023000000
#0593b1:1300003300003300
#059361:00000053000000000053000000000000
#060361:23
#060371:0000001300230000
#0603b1:0053
#060381:00000016
#060351:000000000000000000000000000000000000000000000000000000000000000000000000000000000000000000000000000000000000000000000000000000000000000000000000000000000000000000000000000000000000000000000000000000000000000000000000000000000000000000000000000000000000000000000000000000000000000000000000000000000000000000000000000000000000000000000000000000000000000000000000000000000000000000000000000000000000000000000000000000000000000000000000000000000000000000000000000000000000000000000000000000000000000000000000000000000000000000000000000000000000000000000000000000000000000000000000000000000000000000000000000000000000000000000000000000000000000000000000000000000000000000000000000000000000000000000000000000000000000000000000000000000000000000000000000000000000000000000000000000000000000000000000000000000000000000000000000000000000000000000000000000000000000000000000000000000000000000000000000000000000000000000000000000000000000000000000000000000000000000000000000000000000000000000000000000000000000000000000000000000000000000000000000000000000000000000000000000000000000000000000000000000000000000000000000000000000000000000000000000000000000000000000000000000000000000000000000000000000000000000000000000000000000000000000000000000000000000000000000000000000000000000000000000000000000000000000000000000000000000000000000000000000000000000000000000000000000000000000000000000000000000000000000000000000000000000000000000000000000000000000000000000000000000000000000000000000000000000000000000000000000000000000000000000000000000000000000000000000000000000000000000000000000000000000000000000000000000000000000000000000000000000000000000000000000000000000000000000000000000000000000000000000000000000000000000000000000000000000000000000000000000000000000000000000000000000000000000000000000000000000000000000000000000000000000000000000000000000000000000000000000000000000000000000000000000000000000000000000000000000000000000000000000000000000000000000000000000000000000000000000000000000000000000000000000000000000000000000000000000000000000000000000000000000000000000000000000000000000000000000000000000000000000000000000000000000000000000000000000000000000000000000000000000000000000000000000000000000000000000000000000000000000000000000000000000000000000000000000000000000000000000000000000000000000000000000000000000000000000000000000000000000000000000000000000000000000000000000000000000000000000000000000000000000000000000000000000000000000000000000000000000000000000000000000000000000000000000000000000000000000000000000000000000000000000000000000000000000000000000000000000000000000000000000000000000000000000000000000000000000000000000000000000000000000000000000000000000000000000000000000000000000000000000000000000000000000000000000000000000000000000000000000000000000000000000000000000000000000000000000000000000000000000000000000000000000000000000000000000000000000000000000000000000000000000000000000000000000000000000000000000000000000000000000000000000000000000000000000000000000000000000000000000000000000000000000000000000000000000000000000000000000000000000000000000000000000000000000000000000000056000000000000000000000000000000000000000000000000000000000000000000000000000000000000000000000000000000000000000000000000000000000000000000000000000000000000000000000000000000000000000000000000000000000000000000000000000000000000000000000000000000000000000000000000000000000000000000000000000000000000000000000000000000000000000000000000000000000000000000000000000000000000000000000000000000000000000000000000000000000000000000000000000000000000000000000000000000000000000000000055000000000000000000000000000000000000000000000000000000000000000000000000000000000000000000000000000000000000000000000000000000000000000000000000000000000000000000000000000000000000000000000000000000000000000000000000000000000000000000000000
#060321:0000000000000056
#061381:35540000
#061361:000000000000000000000000000000000000000000000000000000000000000000000000000000000000000000000000000000000000000000000000000000000000000000000000000000000000000000000000000000000000000000000000000000000000000000000000000000000000000000005400000000000000000000000000000000000000000000000000000000000000000000000000000000000000000000000000000000000000000000000000000000000000000000000000000000000000000000000000000000000000000000000000000000000000000000000000000000000000000000000000000000000000000000000000000000000000000000000000000000000000000000000000000000000000000000000000000000000000000000000000000000000000000000000000000000000000000000000000000000000000000000000000000000000000000000000000000000000000000000005400000000000000000000000000000000000000000000000000000000000000000000000000000000000000000000000000000000000000000000000000000000000000000000000000000000000000000000000000000000000000000000000000000000000000000000000000000000000000000000000000000000000000000000000000000000000000000000000000000000000000000000000000000000000000000000000000000000000000000000000000000000000000000000000000000000000000000000000000000000000000000000000000000000000000000000000000000000000000000000540000000000000000000000000000000000000000000000000000000000000000000000000000000000000000000000000000000000000000000000000000000000000000000000000000000000000000000000000000000000000000000000000000000000000000000000000000000000000000000000000000000000000000000000000000000000000000000000000000000000000000000000000000000000000000000000000000000000000000000000000000000000000000000000000000000000000000000000000000000000000000000000000000000000000000000000000000000000000000000000000000000000000000000000000000000000000000000000000000000000000000000000000000000000000000000000000000000000000000000000000000000000000000000000000000000000000000000000000000000000000000000000000000000000000000000000000000000000000000000000000000000000000000000000000000000000000000000000000000000000000000000000000000000000000000000000000000000000000000000000000000000000000000000000000000000000000000000000000000000000000000000000000000000000000000000000000000000000000000000000000000000000000000000000000000000000000000000000000000000000000000000000000000000000000000000000000000000000000000000000000000000000000000000000000000000000000000000000000000000000000000000000000000000000000000000000000000000000000000000000000000000000000000000000000000000000000000000000000000000000000000000000000000000000000000000000000000000000000000000000000000000000000000000000000000000000000000000000000000000000000000000000000000000000000000000000000000000000000000000000000000000000000000000000000000000000000000000000000000000000000000000000000000000000000000000000000000000000000000000000000000000000000000000000000000000000000000000000000000000000000000000000000000000000000000000000000000000000000000000000000000000000000000000000000000000000000000000000000000000000000000000000000000000000000000000000000000000000000000000000000000000000000000000000000000000000000000000000000000000000000000000000000000000000000000000000000000000000000000000000000000000000000000000000000000000000000000000000000000000000000000000000000000000000000000000000000000000000000000000000000000000000000000000000000000000000000000000000000000000000000000000000000000000000000000000000000000000000000000000000000000000000000000000000000000000000000000000000000000000000000000000000000000000000000000000000000000000000000000000000000000000000000000000000000000000000000000000000000000000000000000000000000000000000000000000000000000000000000000000000000000000000000000000000000000000000000000000000000000000000000000000000000000000000000000000000000000000000000000000000000000000000000000000000000000000000000000000000000000000000000000000000000000000000000000000000000000000000000000000000000000
#061341:0054000000000000
#061351:0000002300000000
#060320:00000016
#060350:00000000000000000000000000560000
#060380:0000000000000056
#060360:00000000000000000000000000000055
#061330:35
#061360:00540034005400000000000000000000
#061380:0054002300000000
#061340:00540000
#064320:1c
#066370:22
