This file was generated by Ched 2.7.0.0.
#TITLE ""
#ARTIST ""
#DESIGNER ""
#DIFFICULTY 0
#PLAYLEVEL
#SONGID ""
#WAVE ""
#WAVEOFFSET 0
#JACKET ""
#REQUEST "ticks_per_beat 480"
#00002: 4
#BPM01: 168
#00008: 01
#TIL00: ""
#HISPEED 00
#MEASUREHS 00
#00619:1414
#00613:00140000
#00614:00000024
#00618:0000000000000024
#00814:00140000
#0081a:2414
#00810:41
#00912:1414
#00918:00140000
#0101a:14
#01014:00140000
#01018:0014
#01012:00000014
#01118:14
#01114:00140000
#0111a:0014
#01212:1414
#01218:00140000
#0131a:1414
#01314:00140000
#01412:14
#01418:00140000
#01414:0014
#0141a:00000014
#01514:14
#01518:00140000
#01512:0014
#0201a:14
#02013:0034
#02014:00000034
#0211a:00140000
#02114:0014
#02118:00000014
#02212:14
#02219:0034
#02218:00000034
#0241a:00140000
#02414:00001414
#02412:24
#02410:41
#02812:14
#02819:0034
#02818:00000034
#02912:00140000
#02918:0014
#02914:00000014
#0301a:14
#03013:0034
#03014:00000034
#01712:14
#0171a:00140000
#01714:0014
#0191a:00140000
#01914:14
#01912:0014
#01612:00140000
#01618:0014
#0161a:24
#01610:41
#01818:14
#0181a:0014
#01812:00140000
#0401a:1414
#04012:00140014
#0421a:0014
#04214:00000014
#04215:26
#0421f:21
#04210:0041
#04318:14000024
#04312:00140024
#0431a:0024
#04314:0024
#04412:00140000
#04418:0014
#04414:00000014
#0451a:14
#04512:00140000
#04518:00001414
#04514:0000000000140014
#04618:14
#0461a:0000003400000000
#04712:1424
#0471a:00140024
#04718:1424
#04714:00140024
#0481a:00140000
#04814:0014
#04818:00000014
#04912:14
#0491a:00140000
#04914:00001414
#04918:0000000000140014
#05014:14
#05012:0000003400000000
#05010:0041
#0511a:1424
#05112:00140024
#05114:1424
#05118:00140024
#0521a:0000001400000014
#05218:0000000000140000
#05318:0014000000140000
#0531a:0000001400000014
#05718:00140000
#05714:0014
#0571a:00000014
#05712:14
#0611a:00140000
#06114:14
#06112:0014
#0601a:00140000
#06014:14
#06018:00000014
#06012:0014
#05512:00140000
#0551a:0014
#05514:00000014
#0561a:00000014
#05618:0024000000000000
#06218:26001414
#06214:0000000000140000
#06212:00160000
#03618:14
#0361a:0014
#03812:14
#03814:0014
#06318:0000160000140000
#06314:00001414
#06312:26
#0321a:14
#03218:0014
#0321f:11
#03414:14
#03412:0014
#0251a:14
#02512:00140000
#02518:00001414
#02614:14
#0261a:00140000
#02612:00001414
#02718:14
#02712:00140000
#0271a:00001414
#05414:0000000000240000
#05419:34
#05418:0034000000000000
#05810:41
#02258:0000000000000014
#03054:0000000000000014
#04255:16
#04658:54
#0465a:0014
#05054:64
#05052:0014
#0525a:0000005400000054
#05258:0000000000540000
#05358:0054000000540000
#0535a:0000005400000054
#06258:16
#06352:16
#03658:64
#0365a:0024
#03852:64
#03854:0024
#0325a:54
#03258:0024
#03454:54
#03452:0024
#000380:1400000000000034
#0013a0:0024
#002340:1400000000000034
#003320:0024
#004390:14343424
#005330:14343424
#020320:00140000
#020330:0034
#020340:00000034
#021340:24
#0223a0:00140000
#022390:0034
#022380:0000000000003424
#0283a0:00140000
#028390:0034
#028380:00000034
#029380:24
#030320:00140000
#030330:0034
#030340:0000000000003424
#0323a0:14
#032380:0054
#0333a0:24
#034340:14
#034320:0054
#035340:24
#036380:14
#0363a0:0054
#037380:24
#038320:14
#038340:0054
#039320:24
#041350:16362600
#041360:0036003600000000
#046380:14
#0463a0:0000003424000000
#050340:14
#050320:0000003424000000
#0523a0:0000143400000034
#052380:0000000000340000
#053380:0034000000340000
#0533a0:0000003400000034
#054390:34
#054380:0034000000000000
#054370:00240000
#054340:0000000000140000
#054330:00000034
#054320:0000000000000024
#056380:0014000000000000
#056390:00340000
#0563a0:0000002400000000
#058340:14000024
#058320:0000003400000000
#059380:14000024
#0593a0:0000003400000000
#064380:16
#0663b0:23
