This file was generated by Ched 2.6.4.0.
#TITLE ""
#ARTIST ""
#DESIGNER ""
#DIFFICULTY 0
#PLAYLEVEL
#SONGID ""
#WAVE ""
#WAVEOFFSET 0
#JACKET ""
#REQUEST "ticks_per_beat 480"
#00002: 4
#BPM01: 76
#00008: 01
#TIL00: ""
#HISPEED 00
#MEASUREHS 00
#0041a:14
#00414:0014
#00410:41
#0051a:14
#00612:14
#00618:0014
#00712:14
#0081a:14
#00814:0014
#00810:41
#00918:14
#02018:2616
#0201f:21
#02412:2616
#02818:14
#02814:0014
#02112:1616
#02110:41
#02218:16
#02212:0016
#02518:1616
#02510:41
#02612:16
#02618:0016
#01012:14
#01018:0014
#01114:14
#01110:41
#0161f:11
#01510:41
#0003a0:1434
#0013a0:3424
#002320:1434
#003320:3424
#0123a0:1434
#0133a0:24
#014320:1434
#015320:24
#016380:1434
#017380:24
#018340:1434
#019340:24
#023380:1626
#027320:1626
#029380:1636
#031390:24
