This file was generated by Ched 2.6.4.0.
#TITLE ""
#ARTIST ""
#DESIGNER ""
#DIFFICULTY 0
#PLAYLEVEL
#SONGID ""
#WAVE ""
#WAVEOFFSET 0
#JACKET ""
#REQUEST "ticks_per_beat 480"
#00002: 4
#BPM01: 76
#00008: 01
#TIL00: ""
#HISPEED 00
#MEASUREHS 00
#00316:0000000012000012
#0031c:0000220000000012
#00312:12
#0031a:0022
#00318:00000022
#00417:0000001200120000
#00414:00000000000000000000001200000000
#00415:0000000000000012
#00412:22000000000000000000000000000012
#0041a:00000000000000120000000000000000
#00418:00000000000000000000000000000012
#00410:41
#00518:12000012
#0051a:0000000000000012
#00514:0000001200000000
#0051c:00120000
#00516:0012
#00512:00000012
#0071a:0000000000000012
#00714:0000000022000012
#00718:12
#0071c:0012
#00716:00220000
#00712:00000022
#00916:12000012
#00914:0000000000000012
#0091a:0000001200000000
#00912:00120000
#00918:0012
#0091c:00000012
#01112:0000120000000012
#0111a:0000001212000000
#01116:12
#01110:41
#01212:0012000000001200
#01214:00120000
#0121c:0000000000120012
#01216:2200000000120012
#01218:16001212
#0141c:0012000000001200
#0141a:12120000
#01416:0012000012001200
#01414:00120000
#01412:0000001200120012
#01418:0000000000120012
#01512:0012001200000012
#0151a:12120000
#01518:0012000000120012
#0151c:0000001212001200
#01516:12120012
#01514:0000000000120000
#01510:41
#01614:12
#01616:0012001200000000
#01618:00120000
#0161c:0012000000120012
#01612:00121212
#01617:0000000000121212
#0161f:11
#01718:0012001200000012
#01715:12
#01712:0012000012001200
#01717:00120000
#01714:0000001200000000
#0171c:12120012
#0171a:0000000000120000
#01716:0000000000120012
#0181a:12
#01818:0012001200000000
#01816:00120000
#01812:0012000000120012
#0181c:00121212
#01817:0000000000121212
#01919:12
#0191c:0012000000000000
#01917:00120000
#0191a:0000001200000000
#01914:0000000000120013
#01916:0012001200001200
#01912:12120000
#02016:0014000000130013
#02012:14002313
#0201b:0013001300130013
#02017:00130013
#02015:0000001300000000
#02018:26
#0201f:21
#02117:0013000000130013
#02116:00001313
#02112:0000130000130013
#0211b:00132313
#02119:13
#02118:0000001300000000
#02110:41
#02217:0013001300001300
#02216:0000130023130013
#0221b:1300130000130013
#02212:0013001300001300
#02317:13
#02319:0000000000000013
#02318:00000012
#02312:00002312
#02313:0000000000000013
#02314:0013000000000000
#02316:00230000
#0271b:00002313
#02716:13000013
#02717:0000230000130013
#02719:0013000000000000
#0281b:0013001300000000
#02817:0000130000000012
#02812:00130000
#0281c:0000000000120000
#02814:00000012
#0281a:00000012
#0001a:0000001200000000
#0011a:0000001200000000
#0021a:0000001200000000
#0081c:12000000000000000000000000000012
#00817:0000001200120000
#0081a:00000000000000000000001200000000
#00819:0000000000000012
#00814:00000000000000120000000000000000
#00816:00000000000000000000000000000012
#00810:41
#02417:0000000000130013
#0241b:00002313
#02412:2613001300130013
#0241a:14
#02416:0014130000001300
#02418:0000001300000000
#02516:0013000000130013
#02517:00001313
#0251b:0000130000130013
#02512:00132313
#02514:13
#02515:0000001300000000
#02510:41
#02616:0013001300001300
#02617:0000130023130013
#02612:1300130000130013
#0261b:0013001300001300
#00617:0000001200120000
#00614:00000000000000000000001200000000
#00615:0000000000000012
#00612:00000000000000000000000000000012
#0061a:00000000000000120000000000000000
#00618:00000000000000000000000000000012
#01017:0000001200120000
#0101a:00000000000000000000001200000000
#01019:0000000000000012
#0101c:00000000000000000000000000000012
#01014:00000000000000120000000000000000
#01016:00000000000000000000000000000012
#0131c:0012001200000012
#01314:12120000
#01316:0012000000120012
#01312:0000001212001200
#01318:12120012
#0131a:0000000000120000
#02058:16
#0205b:0000002300000000
#02056:0024000000000063
#02057:00530000
#02052:54341300
#01258:66
#0115a:0022
#01156:62
#01152:00220000
#00758:52
#0075c:0062
#00558:52
#0055c:00220000
#00556:0062
#00552:00000022
#00956:62
#00952:00220000
#00958:0052
#0095c:00000022
#00352:52
#00356:0062
#0215b:0013
#02152:0000530000000053
#02158:0000005300000000
#02256:0000000013000063
#02257:0000005300000000
#02352:0013
#0245a:64440000
#02456:0024630000000000
#02452:1600002300000000
#02457:0000000000000053
#0245b:0013
#02555:0000006300000000
#0255b:0000630000000063
#02552:0013
#02657:0000000013000053
#02656:0000006300000000
#0275b:0013
#01556:62620000
#01558:0000000000620062
#01552:0062006200000000
#0155c:00006262
#01358:52520000
#01356:0000000000520052
#0135c:0052005200000000
#01352:00005252
#01758:0062006200000000
#0175c:62620000
#01756:0000000000520052
#01752:00005252
#01956:0052005200000000
#01952:52520000
#000360:12
#000320:0022
#0003c1:0012
#001381:22
#000340:00000000000000000000001200002200
#001360:12
#001320:0022
#0013c1:0012
#002381:22
#001360:00000000000000000000001200002200
#002320:12
#002360:0022
#002381:0012
#0033c1:22
#002340:00000000000000000000001200002200
#003320:12000022
#003360:0032
#004380:12
#0043c0:0000002200000000
#004350:00000000000000120000000000000000
#004320:0000000000220000
#004390:00000000000000000000001200000000
#0043c0:0000000000000022
#005380:1222
#0053c0:00520000
#005361:0012
#005321:00000052
#006361:22
#006380:12
#0063c0:0000002200000000
#006350:00000000000000120000000000000000
#006320:0000000000220000
#006390:00000000000000000000001200000000
#0063c0:0000000000000022
#007380:12000022
#0073c0:0032
#008360:12
#008320:0000002200000000
#008390:00000000000000120000000000000000
#0083c0:0000000000220000
#008350:00000000000000000000001200000000
#008320:0000000000000022
#009360:1222
#009320:00520000
#009381:0012
#0093c1:00000052
#010381:22
#010360:12
#010320:0000002200000000
#010390:00000000000000120000000000000000
#0103c0:0000000000220000
#010350:00000000000000000000001200000000
#010320:0000000000000022
#011360:1222
#011320:00520000
#0113a1:0012
#012381:36
#0123a1:0000002200000000
#012360:0000001200000000
#012320:0022
#013380:12522200
#0133c0:0052005200000000
#013321:00001252
#013361:0000000000520052
#014321:22
#014381:0000001200000000
#0143c1:0022
#015361:12522200
#015321:0052005200000000
#0153c0:00001252
#015380:0000000000520052
#0163c0:22
#0163c0:0000001200000000
#016380:0022
#0173c0:12522200
#017380:0052005200000000
#017321:00001252
#017361:0000000000520052
#018321:22
#018321:0000001200000000
#018361:0022
#019321:12522200
#019361:0052005200000000
#0193a0:0012
#020380:26
#020321:14240000
#020361:0054000000000000
#020370:00132300
#0203b0:0000005300000000
#020360:0000000000000013
#021320:0023000000000000
#021320:00130000
#021350:0000002300000000
#021381:0000001300000000
#0213b1:0023
#021321:0000000000000013
#022361:23
#022371:0000001300000000
#0223b1:0023
#022361:0000000000000013
#023321:23
#0233b1:00130000
#023371:0000002300000000
#023371:0013
#0233b1:0000000000230000
#0243a1:14240000
#024361:0054000000000000
#024360:00132300
#024320:0000005300000000
#024370:0000000000000013
#0253b0:0023000000000000
#0253b0:00130000
#025380:0000002300000000
#025351:0000001300000000
#025321:0023
#0253b1:0000000000000013
#026371:23
#026361:0000001300000000
#026321:0023
#026371:0000000000000013
#0273b1:23
#027321:00130000
#027361:0000002300000000
#027361:0013
#027321:0000000000230000
#027321:0000000000000013
#028361:0023000000000000
#028361:0000001300000000
#028321:0000000000220000
#029381:1622
#029320:0016
#031320:22
